img image001 image001 image001 image001 image001 image001 image001 image001 image001 image001 image001 image001 image001 image001 image001 image001

Planets Sun Sun Sun
Статистика раздачи
Автор: Nickolas3434 | Размер: 699.2 МБ | Добавлен: 06 апр 2017
Раздают: 26    Качают: 2
Скачать торрент
Скачать торрент
Описание торрента

СообщениеДобавлено: 06 апр 2017 

Информация о фильме
Название: Клуб страха
Оригинальное название: Club Dread
Год выхода: 2004
Жанр: ужасы, триллер, комедия
Режиссер: Джей Чандрашекхар
В ролях: Елена Лайонс, Дэн Монтгомери мл., Таня Ричерт, Нат Факсон, Майкл Уивер, Кевин Хеффернан, Майкл Юрчак, Джордан Лэдд, Бриттани Дэниэл, Ричард Перелло
О фильме: Посреди океана есть остров-курорт, единственное предназначение которого — доставлять любое удовольствие туристам. Играет веселая музыка, текила и виски льются рекой, полуобнаженные сексуальные девушки готовы для общения, а обслуживающий персонал удовлетворит любое желание. Настоящий рай. Но на острове начинают происходить жестокие убийства. Кто-то, вооружившись огромным мачете, начинает рубить на куски всех подряд. Бесконечная вечеринка превращается в кошмар, а желание повеселиться — в желание выжить…

Страна: США
Студия: Broken Lizard Industries, Cataland Films, Coconut Pete Productions
Продолжительность: 01:43:52
Перевод: Профессиональный (многоголосый, закадровый) Гемини
Субтитры: Нет
Семпл
Файл
Кодек: XviD
Качество: WEB-DLRip
Видео: 720x304 (2.37:1), 23.976 fps, XviD build 73 ~803 kbps avg, 0.15 bit/pixel
Звук: 48 kHz, MPEG Layer 3, 2 ch, ~128.00 kbps avg
Общее
Полное имя : Club.Dread.2004.WEB-DLRip.ot.Portablius.avi
Формат : AVI
Формат/Информация : Audio Video Interleave
Размер файла : 699 Мбайт
Продолжительность : 1 ч. 43 м.
Общий поток : 941 Кбит/сек
Программа кодирования : VirtualDubMod 1.5.10.3 | www.virtualdub-fr.org || (build 2550/release)
Библиотека кодирования : VirtualDubMod build 2550/release
Видео
Идентификатор : 0
Формат : MPEG-4 Visual
Профиль формата : Advanced Simple@L5
Параметр BVOP формата : 1
Параметр QPel формата : Нет
Параметр GMC формата : Без точки перехода
Параметр матрицы формата : Выборочная
Идентификатор кодека : XVID
Идентификатор кодека/Подсказка : XviD
Продолжительность : 1 ч. 43 м.
Битрейт : 804 Кбит/сек
Ширина : 720 пикселей
Высота : 304 пикселя
Соотношение сторон : 2,35:1
Частота кадров : 23,976 (24000/1001) кадра/сек
Частота кадров в оригинале : 23,976 (23976/1000) кадра/сек
Цветовое пространство : YUV
Субдискретизация насыщенности : 4:2:0
Битовая глубина : 8 бит
Тип развёртки : Прогрессивная
Метод сжатия : С потерями
Бит/(Пиксели*Кадры) : 0.153
Размер потока : 597 Мбайт (85%)
Библиотека кодирования : XviD 73
Аудио
Идентификатор : 1
Формат : MPEG Audio
Версия формата : Version 1
Профиль формата : Layer 3
Идентификатор кодека : 55
Идентификатор кодека/Подсказка : MP3
Продолжительность : 1 ч. 43 м.
Вид битрейта : Постоянный
Битрейт : 128 Кбит/сек
Каналы : 2 канала
Частота : 48,0 КГц
Метод сжатия : С потерями
Размер потока : 95,1 Мбайт (14%)
Выравнивание : Соединение по промежуткам
Продолжительность промежутка : 42 мс. (1,00 видеокадр)
Время предзагрузки промежутка : 504 мс.
Библиотека кодирования : LAME3.99r
Настройки программы : -m s -V 4 -q 2 -lowpass 17 -b 128










   Похожие торренты   Торрент   Размер 
В этой теме нет новых непрочитанных сообщений. Клуб страха / Остров ужасов / Club Dread (2004) WEB-DLRip | Р

22 | 4

1.45 ГБ

В этой теме нет новых непрочитанных сообщений. Клуб страха / Club Dread (2004) WEB-DL 720p | Р

25 | 5

3.38 ГБ

В этой теме нет новых непрочитанных сообщений. Клуб выживших / The Survivors Club (2004) TVRip | P2

6 | 0

1.35 ГБ

В этой теме нет новых непрочитанных сообщений. Секс-клуб с клубничкой / Kinky Sex Club (2004) IPTVRip от torrentfilm | P

2322 | 263

746.48 МБ

В этой теме нет новых непрочитанных сообщений. Клуб последних мужчин / Last Man Club (2016) WEB-DLRip | L

267 | 38

1.37 ГБ

В этой теме нет новых непрочитанных сообщений. Клуб приключений / The Adventure Club (2017) WEB-DLRip | L

11 | 0

1.37 ГБ

В этой теме нет новых непрочитанных сообщений. Клуб мертвых / Club Dead (2015) WEB-DLRip | L2

541 | 14

1.37 ГБ




Вы не можете начинать темы
Вы не можете отвечать на сообщения
Вы не можете редактировать свои сообщения
Вы не можете удалять свои сообщения
Вы не можете добавлять вложения

Перейти:  
 Вход
ppkBB3cker v.2 © 2008-2014 @ PPK
[ Time : 0.039s | 16 Queries | GZIP : Off ]

cron