img image001 image001 image001 image001 image001 image001 image001 image001 image001 image001 image001 image001 image001 image001 image001 image001

Planets Sun Sun Sun
Статистика раздачи
Автор: Nickolas3434 | Размер: 1.45 ГБ | Добавлен: 20 янв 2017
Раздают: 2    Качают: 1
Скачать торрент
Скачать торрент
Описание торрента

СообщениеДобавлено: 20 янв 2017 

Информация о фильме
Название: Война Мерфи
Оригинальное название: Murphy’s War
Год выхода: 1971
Жанр: боевик, драма, военный
Режиссер: Питер Йетс
В ролях: Питер О’Тул (Murphy), Шан Филлипс (Hayden), Филипп Нуаре (Brezan), Хорст Янсон (Lauchs), Джон Хэллам (Ellis), Инго Могендорф (Voght), Гарри Филдер (German Sub Crewman), Джордж Рубисек (U-Boat Crewman)
О фильме:
Мерфи (Питер О'Тул) - единственный член экипажа, оставшийся в живых после нападения немецкой подлодки на ирландское торговое судно в конце Второй мировой войны у берегов Венесуэлы. Раненым он попадает в британский госпиталь, расположенный в тропической деревне, где его выхаживает медсестра Холден, искренне сочувствующая герою. Мерфи не может забыть своих погибших товарищей, он горит ненавистью к немецкой субмарине и мечтает отомстить. Узнав, что на одном из островов в джунглях обнаружен неисправный морской самолет, Мерфи находит его, восстанавливает и готовится к боевому вылету, самостоятельно осваивая пилотирование.
Приходит май сорок пятого, Германия капитулирует, но Мерфи это известие уже не остановит - он должен отомстить врагам, потопившим его корабль. И Мерфи объявляет свою личную войну подводной лодке...

Страна: Великобритания
Студия: Hemdale
Продолжительность: 01:46:38
Перевод: Профессиональный (многоголосый закадровый)
Файл
Качество: WEB-DLRip-AVC [HDclub_Murphy's.War.1971.1080p.WEB-DL.AAC2.0.H.264-alinto]
Видео: High@L4.1, ~1755 Кбит/с, 1024x434, 23.976 fps
Аудио: 48 kHz, AC3, 2/0 (L,R) ch, ~192.00 kbps
Субтитры: English
General
Unique ID : 492710771920822702582696395586598695 (0x5EE4843FB0F0F487E89D9580CEF727)
Complete name : D:Война Мерфи.(1971).WEB-DLRIP-AVC.[-=DoMiNo=-].mkv
Format : Matroska
Format version : Version 4 / Version 2
File size : 1.45 GiB
Duration : 1 h 46 min
Overall bit rate : 1 951 kb/s
Movie name : Война Мерфи
Deion : Хорошо поставленный, захватывающий боевик о войне, в котором наряду с батальными сценами дается психологический портрет английского моряка, который один остался в живых после того, как его судно оказалось потоплено немцами. Опираясь на помощь местного населения, после восстановления здоровья, он, одержимый местью, решает один напасть на немецкую армию, несмотря на то, что война уже закончилась…
Writing application : XviD4PSP 7.0.347 DAILY
Writing library : Lavf57.41.100 / Lavf57.41.100
Attachments : poster.jpg
ACTORS : Питер О’Тул, Шан Филлипс, Филипп Нуаре, Хорст Янсон, Джон Хэллам, Инго Могендорф, Гарри Филдер, Джордж Рубисек
COUNTRY : Великобритания
DATE : 1970
DIRECTOR : Питер Йетс
ENCODING_INFO : MATROSKA,WEBM > MKV Произвольный / H264 > X264 VBR-2P 1755kbps Произвольный / AC3 > COPY
GENRE : драма, военный
HD_VIDEO : 1
IMDB_RATING : 6.90
ITUNEXTC : mpaa|PG-13|300|
MEDIA_TYPE : 9
ORIGINAL_ACTORS : Peter O'Toole, Siân Phillips (в титрах: Sian Phillips), Philippe Noiret, Horst Janson, John Hallam, Ingo Mogendorf, Harry Fielder, George Roubicek
ORIGINAL_TITLE : Murphy's War
PRODUCER : Майкл Дили
RATING : 7.234
WRITER : Стёрлинг Силлифант, Макс Катто
Video
ID : 1
Format : AVC
Format/Info : Advanced Video Codec
Format profile : High@L4.1
Format settings, CABAC : Yes
Format settings, ReFrames : 12 frames
Codec ID : V_MPEG4/ISO/AVC
Duration : 1 h 46 min
Bit rate : 1 755 kb/s
Width : 1 024 pixels
Height : 434 pixels
Display aspect ratio : 2.35:1
Frame rate mode : Constant
Frame rate : 23.976 (24000/1001) FPS
Color space : YUV
Chroma subsampling : 4:2:0
Bit depth : 8 bits
Scan type : Progressive
Bits/(Pixel*Frame) : 0.165
Stream size : 1.28 GiB (88%)
Title : RIP_BY_-=DoMiNo=-
Writing library : x264 core 148 r2744M b97ae06
Encoding settings : cabac=1 / ref=12 / deblock=1:-3:-3 / analyse=0x3:0x133 / me=umh / subme=11 / psy=1 / psy_rd=1.00:0.10 / mixed_ref=1 / me_range=48 / chroma_me=1 / trellis=2 / 8x8dct=1 / cqm=0 / deadzone=21,11 / fast_pskip=0 / chroma_qp_offset=-3 / threads=5 / lookahead_threads=1 / sliced_threads=0 / nr=0 / decimate=1 / interlaced=0 / bluray_compat=0 / constrained_intra=0 / bframes=11 / b_pyramid=2 / b_adapt=2 / b_bias=0 / direct=3 / weightb=1 / open_gop=0 / weightp=2 / keyint=230 / keyint_min=23 / scenecut=40 / intra_refresh=0 / rc=2pass / mbtree=0 / bitrate=1755 / ratetol=1.0 / qcomp=0.60 / qpmin=0 / qpmax=69 / qpstep=4 / cplxblur=20.0 / qblur=0.5 / ip_ratio=1.40 / pb_ratio=1.30 / aq=1:1.00
Language : English
Default : Yes
Forced : No
Color range : Limited
Color primaries : BT.709
Transfer characteristics : BT.709
Matrix coefficients : BT.709
DURATION : 01:46:38.100000000
Audio
ID : 2
Format : AC-3
Format/Info : Audio Coding 3
Mode extension : CM (complete main)
Format settings, Endianness : Big
Codec ID : A_AC3
Duration : 1 h 46 min
Bit rate mode : Constant
Bit rate : 192 kb/s
Channel(s) : 2 channels
Channel positions : Front: L R
Sampling rate : 48.0 kHz
Frame rate : 31.250 FPS (1536 spf)
Bit depth : 16 bits
Compression mode : Lossy
Stream size : 146 MiB (10%)
Title : RUS_P_MVO
Language : Russian
Default : Yes
Forced : No
DURATION : 01:46:38.144000000
Text
ID : 3
Format : UTF-8
Codec ID : S_TEXT/UTF8
Codec ID/Info : UTF-8 Plain Text
Title : ENG
Language : English
Default : Yes
Forced : No
DURATION : 01:46:12.366000000
Menu
00:00:00.000 : :Глава 1
00:08:56.296 : :Глава 2
00:19:57.313 : :Глава 3
00:31:09.659 : :Глава 4
00:43:01.707 : :Глава 5
00:55:30.028 : :Глава 6
01:07:20.933 : :Глава 7
01:20:01.726 : :Глава 8
01:32:30.046 : :Глава 9




   Похожие торренты   Торрент   Размер 
В этой теме нет новых непрочитанных сообщений. Война Мерфи / Murphy’s War (1971) WEB-DLRip | P

2 | 7

1.46 ГБ

В этой теме нет новых непрочитанных сообщений. Война Мерфи / Murphy’s War (1971) WEB-DLRip 720p | P

0 | 1

3.59 ГБ

В этой теме нет новых непрочитанных сообщений. Война Мерфи / Murphy’s War (1971) WEB-DL 1080p | P

0 | 6

8.27 ГБ

В этой теме нет новых непрочитанных сообщений. Любовь Мёрфи / Роман Мёрфи / Murphy's Romance (1985) DVDRip | P

1 | 6

1.45 ГБ

В этой теме нет новых непрочитанных сообщений. Закон Мерфи / Murphy's Law (1986) HDRip | P

6 | 0

1.45 ГБ

В этой теме нет новых непрочитанных сообщений. Закон Мерфи / Murphy's Law (1986) BDRemux 1080p | P, A

0 | 0

24.3 ГБ

В этой теме нет новых непрочитанных сообщений. Закон Мерфи / Murphy's Law (1986) BDRip 1080p | P, A

23 | 10

7.64 ГБ




Вы не можете начинать темы
Вы не можете отвечать на сообщения
Вы не можете редактировать свои сообщения
Вы не можете удалять свои сообщения
Вы не можете добавлять вложения

Перейти:  
 Вход
ppkBB3cker v.2 © 2008-2014 @ PPK
[ Time : 0.033s | 17 Queries | GZIP : Off ]

cron