img image001 image001 image001 image001 image001 image001 image001 image001 image001 image001 image001 image001 image001 image001 image001 image001

Planets Sun Sun Sun
Статистика раздачи
Автор: PriZraK | Размер: 3.7 ГБ | Добавлен: 03 дек 2016
Раздают: 0    Качают: 1
Скачать торрент
Скачать торрент
Описание торрента

СообщениеДобавлено: 03 дек 2016 

Название: Богиня 1967 года
Оригинальное название: The Goddess of 1967
Год выхода: 2000
Страна: Австралия
Студия: New South Wales Film & Television Office
Продолжительность: 01:54:18
Жанр: драма, мелодрама, комедия
Режиссер: Клара Ло
В ролях: Роуз Бирн, Рикия Курокава, Николас Хоуп, Элиз МакКреди, Тим Ричардс, Бри Бидман, Сатья Гумберт, Тина Бурсилл, Доминик Кондон, Тим МакГарри, ...
Перевод: Профессиональный (двухголосый, закадровый) Ульпаней Эльром
О фильме: «Богиня» — прозвище автомобиля, на котором путешествуют наши герои. Он — японский молодой человек, мечтающий купить этот автомобиль. Она — семнадцатилетняя владелица этой машины. Молодой человек должен пробыть вместе со странной девушкой пять дней, чтобы помочь разобраться ей в её прошлом…

Кодек: x264
Качество: DVDRip-AVC
Видео: 1024x572, 3800 kbps, 25 fps
Аудио #1: AC-3, 2 ch, 192 kbps (Rus) - DVO Ульпаней Эльром
Аудио #2: AC-3, 2 ch, 192 kbps (Eng)
Аудио #3: AC-3, 6 ch, 448 kbps (Eng)
Субтитры: Английские
За исходник спасибо - keastwood

x264 [info]: frame I:825 Avg QP:14.03 size: 79602
x264 [info]: frame P:35802 Avg QP:17.16 size: 36544
x264 [info]: frame B:134827 Avg QP:19.90 size: 13967
x264 [info]: consecutive B-frames: 1.3% 2.2% 6.7% 19.3% 22.8% 32.3% 9.5% 2.4% 1.3% 1.4% 0.3% 0.2% 0.4%
Общее
Уникальный идентификатор : 222640853916960527435038489990409376892 (0xA77F1198F6388F5E8FAB877D180E547C)
Полное имя : Богиня 1967 года (The Goddess of 1967) 2000 DVDRip.mkv
Формат : Matroska
Версия формата : Version 2
Размер файла : 3,70 Гбайт
Продолжительность : 1 ч. 54 м.
Общий поток : 4634 Кбит/сек
Дата кодирования : UTC 2016-11-28 20:24:16
Программа кодирования : mkvmerge v4.0.0 ('The Stars were mine') сборка от Jun 6 2010 16:18:42
Библиотека кодирования : libebml v1.0.0 + libmatroska v1.0.0
Видео
Идентификатор : 1
Формат : AVC
Формат/Информация : Advanced Video Codec
Профиль формата : High@L4.1
Параметр CABAC формата : Да
Параметр ReFrames формата : 12 кадров
Идентификатор кодека : V_MPEG4/ISO/AVC
Продолжительность : 1 ч. 54 м.
Битрейт : 3800 Кбит/сек
Ширина : 1024 пикселя
Высота : 572 пикселя
Соотношение сторон : 16:9
Режим частоты кадров : Постоянный
Частота кадров : 25,000 кадров/сек
Цветовое пространство : YUV
Субдискретизация насыщенности : 4:2:0
Битовая глубина : 8 бит
Тип развёртки : Прогрессивная
Бит/(Пиксели*Кадры) : 0.260
Размер потока : 2,96 Гбайт (80%)
Библиотека кодирования : x264 core 146 r2538 121396c
Настройки программы : cabac=1 / ref=12 / deblock=1:-3:-3 / analyse=0x3:0x133 / me=umh / subme=11 / psy=1 / psy_rd=1.00:0.00 / mixed_ref=1 / me_range=32 / chroma_me=1 / trellis=2 / 8x8dct=1 / cqm=0 / deadzone=21,11 / fast_pskip=0 / chroma_qp_offset=-2 / threads=12 / lookahead_threads=2 / sliced_threads=0 / nr=0 / decimate=0 / interlaced=0 / bluray_compat=0 / constrained_intra=0 / bframes=12 / b_pyramid=2 / b_adapt=2 / b_bias=0 / direct=3 / weightb=1 / open_gop=0 / weightp=2 / keyint=250 / keyint_min=25 / scenecut=40 / intra_refresh=0 / rc=2pass / mbtree=0 / bitrate=3800 / ratetol=1.0 / qcomp=0.60 / qpmin=0 / qpmax=69 / qpstep=4 / cplxblur=20.0 / qblur=0.5 / ip_ratio=1.40 / pb_ratio=1.30 / aq=1:0.80
Язык : English
Default : Нет
Forced : Нет
Аудио #1
Идентификатор : 2
Формат : AC-3
Формат/Информация : Audio Coding 3
Расширение режима : CM (complete main)
Параметр Endianness формата : Big
Идентификатор кодека : A_AC3
Продолжительность : 1 ч. 54 м.
Вид битрейта : Постоянный
Битрейт : 192 Кбит/сек
Каналы : 2 канала
Расположение каналов : Front: L R
Частота : 48,0 КГц
Частота кадров : 31,250 кадров/сек (1536 spf)
Метод сжатия : С потерями
Размер потока : 157 Мбайт (4%)
Заголовок : DVO Ульпаней Эльром (Ольга и Николай Туберовские)
Язык : Russian
Default : Нет
Forced : Нет
Аудио #2
Идентификатор : 3
Формат : AC-3
Формат/Информация : Audio Coding 3
Расширение режима : CM (complete main)
Параметр Endianness формата : Big
Идентификатор кодека : A_AC3
Продолжительность : 1 ч. 54 м.
Вид битрейта : Постоянный
Битрейт : 192 Кбит/сек
Каналы : 2 канала
Расположение каналов : Front: L R
Частота : 48,0 КГц
Частота кадров : 31,250 кадров/сек (1536 spf)
Метод сжатия : С потерями
Размер потока : 157 Мбайт (4%)
Заголовок : 2.0
Язык : English
Default : Нет
Forced : Нет
Аудио #3
Идентификатор : 4
Формат : AC-3
Формат/Информация : Audio Coding 3
Расширение режима : CM (complete main)
Параметр Endianness формата : Big
Идентификатор кодека : A_AC3
Продолжительность : 1 ч. 54 м.
Вид битрейта : Постоянный
Битрейт : 448 Кбит/сек
Каналы : 6 каналов
Расположение каналов : Front: L C R, Side: L R, LFE
Частота : 48,0 КГц
Частота кадров : 31,250 кадров/сек (1536 spf)
Метод сжатия : С потерями
Размер потока : 366 Мбайт (10%)
Заголовок : 5.1
Язык : English
Default : Нет
Forced : Нет
Текст
Идентификатор : 5
Формат : UTF-8
Идентификатор кодека : S_TEXT/UTF8
Идентификатор кодека/Информация : UTF-8 Plain Text
Язык : English
Default : Нет
Forced : Нет





   Похожие торренты   Торрент   Размер 
В этой теме нет новых непрочитанных сообщений. Чон И: Богиня огня / Богиня огня Чонги / Bool-ui Yeosin Jungyi / Jung Yi, The Goddess of Fire [01-32 из 32] (2013) HDTVRip | L1

81 | 23

23.13 ГБ

В этой теме нет новых непрочитанных сообщений. Богиня Любви / Goddess of Love (1988) DVDRip | P2

127 | 16

745.28 МБ

В этой теме нет новых непрочитанных сообщений. Наконец, шоу 1948-го года / At Last The 1948 Show [s01] (1967) DVDRip от Brazzass

0 | 5

691.33 МБ

В этой теме нет новых непрочитанных сообщений. Богиня любви / Goddess of Love (2015) HDRip | L2

1545 | 53

1.46 ГБ

В этой теме нет новых непрочитанных сообщений. Богиня любви / Goddess of Love (2015) BDRip | А

9 | 1

1.45 ГБ

В этой теме нет новых непрочитанных сообщений. Богиня любви / Goddess of Love (2015) HDRip | L2

312 | 14

698.65 МБ

В этой теме нет новых непрочитанных сообщений. Богиня любви / Goddess of Love (2015) BDRip 1080р | А

35 | 10

8.91 ГБ




Вы не можете начинать темы
Вы не можете отвечать на сообщения
Вы не можете редактировать свои сообщения
Вы не можете удалять свои сообщения
Вы не можете добавлять вложения

Перейти:  
 Вход
ppkBB3cker v.2 © 2008-2014 @ PPK
[ Time : 0.030s | 18 Queries | GZIP : Off ]

cron