img image001 image001 image001 image001 image001 image001 image001 image001 image001 image001 image001 image001 image001 image001 image001 image001

Planets Sun Sun Sun
Статистика раздачи
Автор: PriZraK | Размер: 1.45 ГБ | Добавлен: 05 ноя 2016
Раздают: 2    Качают: 0
Скачать торрент
Скачать торрент
Описание торрента

СообщениеДобавлено: 05 ноя 2016 

Бездельник / Slacker

Страна: США
Жанр: комедия, драма
Год выпуска: 1991
Продолжительность: 01:40:43
Перевод: Любительский одноголосый закадровый | Мафиозий Донецкий
Cубтитры: русские, английские
Оригинальная аудиодорожка: английский
Режиссер: Ричард Линклейтер / Richard Linklater
В ролях: Ричард Линклейтер (чувак в такси), Руди Баскес, Джин Кафеин, Джен Хоки, Стивен Хоки, Марк Джеймс, Сэмюэл Дитерт, Боб Бойд, Терренс Кирк, Кейт МакКормак
Описание: Бессюжетный фильм об одном дне из жизни богемы, бездельников и «невписавшихся в систему» в городе Остине, штат Техас. За полтора часа перед нами проходит паноптикум персонажей, и ни на одном из них камера не задерживается более чем на 3 минуты: мечтательный путешественник, человек, помешанный на НЛО, конспиролог-любитель, пожилой анархист, предлагающий дружбу грабителю в собственном доме, коллекционер старых телевизоров, и странная то ли девочка, то ли мальчик, продающая на улице гинекологический мазок Мадонны.

Качество видео: BDRip-AVC
Формат видео: MKV
Видео: AVC, 856x642 (4:3), 23.976 fps, 1 674 Kbps (0.127 bit/pixel)
Аудио #1: AC-3, 48.0 KHz, 2 ch, 192 Kbps, CBR (Russian)
Аудио #2: AC-3, 48.0 KHz, 2 ch, 192 Kbps, CBR (English)
Формат субтитров: softsub (SRT)
Общее
Уникальный идентификатор : 228106751615845027635214756099240522105 (0xAB9BC3291134067BB393484B05807179)
Формат : Matroska
Версия формата : Version 4 / Version 2
Размер файла : 1,45 Гбайт
Продолжительность : 1 ч. 40 м.
Общий поток : 2058 Кбит/сек
Дата кодирования : UTC 2016-10-26 06:37:53
Программа кодирования : mkvmerge v9.1.0 ('Little Earthquakes') 64bit
Библиотека кодирования : libebml v1.3.3 + libmatroska v1.4.4
Видео
Идентификатор : 1
Формат : AVC
Формат/Информация : Advanced Video Codec
Профиль формата : High@L4.1
Параметр CABAC формата : Да
Параметр ReFrames формата : 14 кадров
Идентификатор кодека : V_MPEG4/ISO/AVC
Продолжительность : 1 ч. 40 м.
Битрейт : 1674 Кбит/сек
Ширина : 856 пикселей
Высота : 642 пикселя
Соотношение сторон : 4:3
Режим частоты кадров : Постоянный
Частота кадров : 23,976 (24000/1001) кадра/сек
Цветовое пространство : YUV
Субдискретизация насыщенности : 4:2:0
Битовая глубина : 8 бит
Тип развёртки : Прогрессивная
Бит/(Пиксели*Кадры) : 0.127
Размер потока : 1,18 Гбайт (81%)
Библиотека кодирования : x264 core 148 r2638 7599210
Настройки программы : cabac=1 / ref=14 / deblock=1:0:0 / analyse=0x3:0x133 / me=umh / subme=10 / psy=1 / psy_rd=1.00:0.00 / mixed_ref=1 / me_range=24 / chroma_me=1 / trellis=2 / 8x8dct=1 / cqm=0 / deadzone=21,11 / fast_pskip=1 / chroma_qp_offset=-2 / threads=6 / lookahead_threads=1 / sliced_threads=0 / nr=0 / decimate=1 / interlaced=0 / bluray_compat=0 / constrained_intra=0 / bframes=8 / b_pyramid=2 / b_adapt=2 / b_bias=0 / direct=3 / weightb=1 / open_gop=0 / weightp=2 / keyint=240 / keyint_min=23 / scenecut=40 / intra_refresh=0 / rc_lookahead=60 / rc=2pass / mbtree=0 / bitrate=1674 / ratetol=1.0 / qcomp=0.60 / qpmin=0 / qpmax=69 / qpstep=4 / cplxblur=20.0 / qblur=0.5 / vbv_maxrate=62500 / vbv_bufsize=78125 / nal_hrd=none / filler=0 / ip_ratio=1.40 / pb_ratio=1.30 / aq=1:1.00
Default : Да
Forced : Нет
Аудио #1
Идентификатор : 2
Формат : AC-3
Формат/Информация : Audio Coding 3
Расширение режима : CM (complete main)
Параметр Endianness формата : Big
Идентификатор кодека : A_AC3
Продолжительность : 1 ч. 40 м.
Вид битрейта : Постоянный
Битрейт : 192 Кбит/сек
Каналы : 2 канала
Расположение каналов : Front: L R
Частота : 48,0 КГц
Частота кадров : 31,250 кадров/сек (1536 spf)
Метод сжатия : С потерями
Размер потока : 138 Мбайт (9%)
Заголовок : Russian
Язык : Russian
Default : Да
Forced : Нет
Аудио #2
Идентификатор : 3
Формат : AC-3
Формат/Информация : Audio Coding 3
Расширение режима : CM (complete main)
Параметр Endianness формата : Big
Идентификатор кодека : A_AC3
Продолжительность : 1 ч. 40 м.
Вид битрейта : Постоянный
Битрейт : 192 Кбит/сек
Каналы : 2 канала
Расположение каналов : Front: L R
Частота : 48,0 КГц
Частота кадров : 31,250 кадров/сек (1536 spf)
Метод сжатия : С потерями
Размер потока : 138 Мбайт (9%)
Заголовок : English
Язык : English
Default : Нет
Forced : Нет
Текст #1
Идентификатор : 4
Формат : UTF-8
Идентификатор кодека : S_TEXT/UTF8
Идентификатор кодека/Информация : UTF-8 Plain Text
Продолжительность : 1 ч. 33 м.
Битрейт : 133 бит/сек
Count of elements : 1747
Размер потока : 91,8 Кбайт (0%)
Заголовок : Russian
Язык : Russian
Default : Да
Forced : Нет
Текст #2
Идентификатор : 5
Формат : UTF-8
Идентификатор кодека : S_TEXT/UTF8
Идентификатор кодека/Информация : UTF-8 Plain Text
Продолжительность : 1 ч. 36 м.
Битрейт : 92 бит/сек
Count of elements : 1489
Размер потока : 65,4 Кбайт (0%)
Заголовок : English
Язык : English
Default : Нет
Forced : Нет





   Похожие торренты   Торрент   Размер 
В этой теме нет новых непрочитанных сообщений. Бездельник / Slacker (1982) BDRip | L1

1 | 0

1.45 ГБ

В этой теме нет новых непрочитанных сообщений. Бездельник / Slacker (1982) BDRemux 1080p | L1

0 | 0

18.41 ГБ

В этой теме нет новых непрочитанных сообщений. Бездельник / Deadbeat [s01] (2014) WEB-DLRip | L2

70 | 15

2.82 ГБ

В этой теме нет новых непрочитанных сообщений. Домашние Коты / Slacker Cats / Сезон: 1-2 / Серии: 1-2 из 12 (2007-2009) WEB-DLRip от New-Team | P

28 | 7

3.02 ГБ

В этой теме нет новых непрочитанных сообщений. Свидетели времени. Заслуженный бездельник Российской Федерации. Валерий Сировский [01-02 из 04] (2017) SATRip от Files-х

0 | 0

701.91 МБ

В этой теме нет новых непрочитанных сообщений. Свидетели времени. Заслуженный бездельник Российской Федерации. Валерий Сировский [01-02 из 04] (2017) SATRip от Files-х

2 | 0

1.72 ГБ

В этой теме нет новых непрочитанных сообщений. Various Artists - James Bond Greatest Hits 1982 - 20 Original Tracks [Vinyl-Rip 24-bit] (1982) WAV

0 | 1

1.77 ГБ




Вы не можете начинать темы
Вы не можете отвечать на сообщения
Вы не можете редактировать свои сообщения
Вы не можете удалять свои сообщения
Вы не можете добавлять вложения

Перейти:  
 Вход
ppkBB3cker v.2 © 2008-2014 @ PPK
[ Time : 0.039s | 15 Queries | GZIP : Off ]

cron