img image001 image001 image001 image001 image001 image001 image001 image001 image001 image001 image001 image001 image001 image001 image001 image001

Planets Sun Sun Sun
Статистика раздачи
Автор: PriZraK | Размер: 18.19 ГБ | Добавлен: 24 окт 2016
Раздают: 1    Качают: 0
Скачать торрент
Скачать торрент
Описание торрента

СообщениеДобавлено: 24 окт 2016 


Информация о фильме
Название: Этот безумный, безумный, безумный, безумный мир
Оригинальное название: It's a Mad, Mad, Mad, Mad World
Год выпуска: 1963
Страна: США
Жанр: Комедия, приключение
Продолжительность: 03:17:35
Перевод: Авторский (одноголосый закадровый) Ю. Сербин
Перевод: Авторский (одноголосый закадровый) А. Гаврилов
Перевод: Профессиональный (двухголосый закадровый)
Перевод: Профессиональный (одноголосый закадровый) А. Карапетян, Мосфильм
Перевод: Авторский (одноголосый закадровый) В. Горчаков
В ролях: Спенсер Трэйси, Милтон Берл, Сид Сизар, Бадди Хэкетт, Этель Мерман, Микки Руни, Дик Шоун, Фил Силверс, Терри-Томас, Джонатан Уинтерс, Эди Адамс, Дороти Провайн, Джимми Дюранте, Питер Фальк, Джим Бакус, Бастер Китон и др.
Описание: Американская приключенческая кинокомедия 1963 года в стиле «роуд-муви», снятая режиссёром Стэнли Крамером. Удостоена премии «Оскар» и номинаций на премию «Золотой глобус».
По дороге в Лас-Вегас мчатся автомобили и грузовик. В первом автомобиле едет бизнесмен с женой и тещей. Во втором — дантист с супругой. В третьем — парочка приятелей. Водитель грузовика везет чужую мебель. Они не знакомы друг с другом и вряд ли когда-нибудь встретились бы. Все они становятся свидетелями аварии. А единственный пострадавший перед смертью открывает тайну: под Большим W он спрятал клад. И вот путешественники превращаются в пиратов. Они наперегонки несутся за сокровищами, пытаясь по дороге посильней испортить жизнь конкурентам…
Фильм был сокращён в советском кинопрокате на 12 минут.
В советском прокате фильм вышел в 1965 году под названием «Это безумный, безумный, безумный, безумный мир» с одноголосым закадровым переводом творческого объединения «Киноактёр» на к/с «Мосфильм», текст читал Артём Карапетян.
Бюджет 9,4 млн $
Сборы 106,3 млн $

Качество: BDRip 1080p
Формат: MKV
Видео кодек: H264
Аудио кодек: AC3
Видео: MPEG4 Video (H264), 1920x696, 23.976fps, 11.0 Mbps
Аудио #1: Русский, Dolby AC3, 48000 Hz, 6ch, 448 kbps - Одноголосый, Сербин
Аудио #2: Русский, Dolby AC3, 48000 Hz, 6ch, 448 kbps - Одноголосый, Гаврилов
Аудио #3: Русский, Dolby AC3, 48000 Hz, 6ch, 448 kbps - Двухголосый
Аудио #4: Русский, Dolby AC3, 48000 Hz, 2ch, 192 kbps - Одноголосый, Карапетян
Аудио #5: Русский, Dolby AC3, 48000 Hz, 2ch, 192 kbps - Одноголосый, Горчаков
Аудио #6: Английский, Dolby AC3, 48000 Hz, 6ch, 448 kbps
Сэмпл
General
Unique ID : 219183519761450382269933788305044490695 (0xA4E535DCEFCD2C6BA44FAF0D9A6B49C7)
Complete name : F:DVDRip1963 Этот безумный мир.mkv
Format : Matroska
Format version : Version 4 / Version 2
File size : 18.2 GiB
Duration : 3 h 17 min
Overall bit rate : 13.2 Mb/s
Movie name : 1963 Это безумный, безумный, безумный, безумный мир / Rip by likko
Encoded date : UTC 2016-10-22 19:30:17
Writing application : mkvmerge v8.3.0 ('Over the Horizon') 64bit
Writing library : libebml v1.3.1 + libmatroska v1.4.2
Video
ID : 1
Format : AVC
Format/Info : Advanced Video Codec
Format profile : High@L4.1
Format settings, CABAC : Yes
Format settings, ReFrames : 9 frames
Codec ID : V_MPEG4/ISO/AVC
Duration : 3 h 17 min
Bit rate : 11.0 Mb/s
Width : 1 920 pixels
Height : 696 pixels
Display aspect ratio : 2.759
Frame rate mode : Constant
Frame rate : 23.976 (24000/1001) FPS
Color space : YUV
Chroma subsampling : 4:2:0
Bit depth : 8 bits
Scan type : Progressive
Bits/(Pixel*Frame) : 0.343
Stream size : 15.2 GiB (83%)
Title : Это безумный, безумный, безумный, безумный мир
Writing library : x264 core 146 r2538 121396c
Encoding settings : cabac=1 / ref=9 / deblock=1:-1:-1 / analyse=0x3:0x133 / me=umh / subme=11 / psy=1 / psy_rd=1.07:0.23 / mixed_ref=1 / me_range=24 / chroma_me=1 / trellis=2 / 8x8dct=1 / cqm=0 / deadzone=21,11 / fast_pskip=0 / chroma_qp_offset=-3 / threads=12 / lookahead_threads=3 / sliced_threads=0 / nr=0 / decimate=1 / interlaced=0 / bluray_compat=0 / constrained_intra=0 / bframes=10 / b_pyramid=2 / b_adapt=2 / b_bias=0 / direct=3 / weightb=1 / open_gop=0 / weightp=2 / keyint=250 / keyint_min=23 / scenecut=40 / intra_refresh=0 / rc=2pass / mbtree=0 / bitrate=11000 / ratetol=1.0 / qcomp=0.60 / qpmin=0 / qpmax=69 / qpstep=4 / cplxblur=20.0 / qblur=0.5 / ip_ratio=1.40 / pb_ratio=1.30 / aq=2:1.00
Language : English
Default : Yes
Forced : No
Audio #1
ID : 2
Format : AC-3
Format/Info : Audio Coding 3
Mode extension : CM (complete main)
Format settings, Endianness : Big
Codec ID : A_AC3
Duration : 3 h 17 min
Bit rate mode : Constant
Bit rate : 448 kb/s
Channel(s) : 6 channels
Channel positions : Front: L C R, Side: L R, LFE
Sampling rate : 48.0 kHz
Frame rate : 31.250 FPS (1536 spf)
Compression mode : Lossy
Stream size : 633 MiB (3%)
Title : Одноголосый, Сербин
Language : Russian
Default : Yes
Forced : No
Audio #2
ID : 3
Format : AC-3
Format/Info : Audio Coding 3
Mode extension : CM (complete main)
Format settings, Endianness : Big
Codec ID : A_AC3
Duration : 3 h 17 min
Bit rate mode : Constant
Bit rate : 448 kb/s
Channel(s) : 6 channels
Channel positions : Front: L C R, Side: L R, LFE
Sampling rate : 48.0 kHz
Frame rate : 31.250 FPS (1536 spf)
Compression mode : Lossy
Stream size : 633 MiB (3%)
Title : Одноголосый, Гаврилов
Language : Russian
Default : No
Forced : No
Audio #3
ID : 4
Format : AC-3
Format/Info : Audio Coding 3
Mode extension : CM (complete main)
Format settings, Endianness : Big
Codec ID : A_AC3
Duration : 3 h 17 min
Bit rate mode : Constant
Bit rate : 448 kb/s
Channel(s) : 6 channels
Channel positions : Front: L C R, Side: L R, LFE
Sampling rate : 48.0 kHz
Frame rate : 31.250 FPS (1536 spf)
Compression mode : Lossy
Stream size : 633 MiB (3%)
Title : Двухголосый
Language : Russian
Default : No
Forced : No
Audio #4
ID : 5
Format : AC-3
Format/Info : Audio Coding 3
Mode extension : CM (complete main)
Format settings, Endianness : Big
Codec ID : A_AC3
Duration : 3 h 17 min
Bit rate mode : Constant
Bit rate : 192 kb/s
Channel(s) : 2 channels
Channel positions : Front: L R
Sampling rate : 48.0 kHz
Frame rate : 31.250 FPS (1536 spf)
Compression mode : Lossy
Stream size : 271 MiB (1%)
Title : Одноголосый, Карапетян (Мосфильм)
Language : Russian
Default : No
Forced : No
Audio #5
ID : 6
Format : AC-3
Format/Info : Audio Coding 3
Mode extension : CM (complete main)
Format settings, Endianness : Big
Codec ID : A_AC3
Duration : 3 h 17 min
Bit rate mode : Constant
Bit rate : 192 kb/s
Channel(s) : 2 channels
Channel positions : Front: L R
Sampling rate : 48.0 kHz
Frame rate : 31.250 FPS (1536 spf)
Compression mode : Lossy
Stream size : 271 MiB (1%)
Title : Одноголосый, Горчаков
Language : Russian
Default : No
Forced : No
Audio #6
ID : 7
Format : AC-3
Format/Info : Audio Coding 3
Mode extension : CM (complete main)
Format settings, Endianness : Big
Codec ID : A_AC3
Duration : 3 h 17 min
Bit rate mode : Constant
Bit rate : 448 kb/s
Channel(s) : 6 channels
Channel positions : Front: L C R, Side: L R, LFE
Sampling rate : 48.0 kHz
Frame rate : 31.250 FPS (1536 spf)
Compression mode : Lossy
Stream size : 633 MiB (3%)
Language : English
Default : No
Forced : No
Menu
00:00:00.000 : en:Chapter 01
00:02:28.231 : en:Chapter 02
00:06:37.438 : en:Chapter 03
00:17:04.314 : en:Chapter 04
00:24:57.454 : en:Chapter 05
00:38:37.398 : en:Chapter 06
00:48:41.126 : en:Chapter 07
01:05:28.090 : en:Chapter 08
01:19:52.204 : en:Chapter 09
01:31:30.485 : en:Chapter 10
01:36:23.569 : en:Chapter 11
01:45:07.259 : en:Chapter 12
01:53:27.008 : en:Chapter 13
02:03:07.588 : en:Chapter 14
02:12:50.420 : en:Chapter 15
02:24:36.000 : en:Chapter 16
02:33:33.204 : en:Chapter 17
02:45:51.358 : en:Chapter 18
02:55:11.876 : en:Chapter 19
03:03:35.713 : en:Chapter 20
03:12:22.572 : en:Chapter 21







   Похожие торренты   Торрент   Размер 
В этой теме нет новых непрочитанных сообщений. Это безумный, безумный, безумный, безумный мир / It's a Mad, Mad, Mad, Mad World (1963) BDRemux 1080p | Extended Version | A

2 | 0

46.56 ГБ

В этой теме нет новых непрочитанных сообщений. Это безумный, безумный, безумный, безумный мир / It's a Mad, Mad, Mad, Mad World (1963) BDRip 720p от NNNB | Extended Version | A

9 | 0

11.54 ГБ

В этой теме нет новых непрочитанных сообщений. Это безумный, безумный, безумный, безумный мир / It's a Mad, Mad, Mad, Mad World (1963) BDRip от MegaPeer | Extended Version | A

14 | 1

2.45 ГБ

В этой теме нет новых непрочитанных сообщений. Этот безумный безумный, безумный, безумный мир / It's a Mad Mad Mad Mad World (Стэнли Крамер) [1963, комедия, криминал, приключения, HDRip] 2xAVO

4 | 0

2.07 ГБ

В этой теме нет новых непрочитанных сообщений. Этот безумный безумный, безумный, безумный мир / It's a Mad Mad Mad Mad World (Стэнли Крамер) [1963, комедия, криминал, приключения, HDRip] VO

13 | 0

1.46 ГБ

В этой теме нет новых непрочитанных сообщений. Это безумный, безумный, безумный, безумный мир / It's a Mad, Mad, Mad, Mad World (1963) BDRemux 1080p | P2, A

0 | 0

38.88 ГБ

В этой теме нет новых непрочитанных сообщений. Это безумный, безумный, безумный, безумный мир / It's a Mad, Mad, Mad, Mad World (1963) BDRip от HQCLUB

153 | 16

2.9 ГБ




Вы не можете начинать темы
Вы не можете отвечать на сообщения
Вы не можете редактировать свои сообщения
Вы не можете удалять свои сообщения
Вы не можете добавлять вложения

Перейти:  
 Вход
ppkBB3cker v.2 © 2008-2014 @ PPK
[ Time : 1.340s | 15 Queries | GZIP : Off ]

cron