img image001 image001 image001 image001 image001 image001 image001 image001 image001 image001 image001 image001 image001 image001 image001 image001

Planets Sun Sun Sun
Статистика раздачи
Автор: PriZraK | Размер: 1.39 ГБ | Добавлен: 23 сен 2016
Раздают: 32    Качают: 10
Скачать торрент
Скачать торрент
Описание торрента

СообщениеДобавлено: 23 сен 2016 


Название: Свидание на одну ночь
Оригинальное название: One Night Stand
Год выпуска: 1997
Жанр: Мелодрама
Выпущено: США, New Line Cinema, Red Mullet Productions
Режиссер: Майк Фиггис
В ролях: Уэсли Снайпс, Настасья Кински, Кайл МакЛахлэн, Минг-На Уэн, Роберт Дауни мл., Джулиан Сэндс, Ксандер Беркли, Айони Скай, Аманда Донохью, Сьюзан Барнс, Гленн Пламмер, Грета Гэйнс, Аннабель Гурвич, Маркус Полк, Джон Ратценбергер, Винсент Уорд
О фильме: Приехав в Нью-Йорк, Макс обращает внимание на красивую женщину, Карен. Следующей ночью они оказываются вместе в постеле. Утром Макс возвращается в Лос-Анджелес, но не может забыть Карен. Он ссорится с коллегами по работе и со своей женой Мими. Спустя год Макс возвращается в Нью-Йорк, чтобы навестить умирающего от СПИДа друга Чарли. В больнице он встречается с его братом Верноном, который оказывается мужем Карен. Когда из Лос-Анджелеса приезжает Мими, обе пары договариваются поужинать вместе. Вернон и Мими оживлённо болтают, а Макс и Карен едва обмениваются словами. Но в один из визитов в больницу Макс встречает Карен, и Чарли, проснувшись, видит, как они целуются. Чарли умирает. После поминок Макс и Карен устремляются в пляжный домик, чтобы заняться любовью, и застают там Вернона и Мими. Ровно через год эти четверо встречаются вновь. Когда они разъежаются, выясняется, что Вернон теперь с Мими, а Макс — с Карен.

Качество: WEB-DLRip-AVC
Видео: MPEG-4 AVC, 1100 Кбит/с, 720х400, 23.976 кадр/с
Аудио #1: Русский (AC3, 6 ch, 448 Кбит/с) Профессиональный многоголосый
Аудио #2: Русский (AC3, 2 ch, 192 Кбит/с) Профессиональный двухголосный
Аудио #3: Украинский (AC3, 2 ch, 192 Кбит/с) Профессиональный многоголосый
Продолжительность: 01:43:00
Перевод: Профессиональный многоголосый, профессиональный двухголосый
Субтитры: Русские, английские
Общее
Уникальный идентификатор : 230126622516367921533783434770232184877 (0xAD20C67C0F38969CA53DEC903035102D)
Полное имя : D:РелизыOne.Night.Stand.1997.AVC.MegaPeer.mkv
Формат : Matroska
Версия формата : Version 4 / Version 2
Размер файла : 1,39 Гбайт
Продолжительность : 1 ч. 43 м.
Общий поток : 1928 Кбит/сек
Название фильма : One Night Stand (1997)
Дата кодирования : UTC 2016-09-22 12:07:03
Программа кодирования : mkvmerge v6.7.0 ('Back to the Ground') 64bit built on Jan 8 2014 15:10:52
Библиотека кодирования : libebml v1.3.0 + libmatroska v1.4.1
Видео
Идентификатор : 1
Формат : AVC
Формат/Информация : Advanced Video Codec
Профиль формата : High@L3.1
Параметр CABAC формата : Да
Параметр ReFrames формата : 5 кадров
Идентификатор кодека : V_MPEG4/ISO/AVC
Продолжительность : 1 ч. 43 м.
Битрейт : 1100 Кбит/сек
Ширина : 720 пикселей
Высота : 400 пикселей
Соотношение сторон : 16:9
Режим частоты кадров : Постоянный
Частота кадров : 23,976 кадра/сек
Цветовое пространство : YUV
Субдискретизация насыщенности : 4:2:0
Битовая глубина : 8 бит
Тип развёртки : Прогрессивная
Бит/(Пиксели*Кадры) : 0.159
Размер потока : 779 Мбайт (55%)
Библиотека кодирования : x264 core 148 r2597M e86f3a1
Настройки программы : cabac=1 / ref=5 / deblock=1:-1:-1 / analyse=0x3:0x113 / me=umh / subme=9 / psy=1 / psy_rd=1.00:0.15 / mixed_ref=1 / me_range=16 / chroma_me=1 / trellis=2 / 8x8dct=1 / cqm=0 / deadzone=21,11 / fast_pskip=1 / chroma_qp_offset=-3 / threads=12 / lookahead_threads=1 / sliced_threads=0 / nr=0 / decimate=1 / interlaced=0 / bluray_compat=0 / constrained_intra=0 / bframes=3 / b_pyramid=2 / b_adapt=2 / b_bias=0 / direct=3 / weightb=1 / open_gop=0 / weightp=2 / keyint=250 / keyint_min=23 / scenecut=40 / intra_refresh=0 / rc_lookahead=50 / rc=abr / mbtree=1 / bitrate=1100 / ratetol=1.0 / qcomp=0.60 / qpmin=0 / qpmax=69 / qpstep=4 / ip_ratio=1.40 / aq=1:1.00
Default : Да
Forced : Нет
Аудио #1
Идентификатор : 2
Формат : AC-3
Формат/Информация : Audio Coding 3
Расширение режима : CM (complete main)
Параметр Endianness формата : Big
Идентификатор кодека : A_AC3
Продолжительность : 1 ч. 43 м.
Вид битрейта : Постоянный
Битрейт : 448 Кбит/сек
Каналы : 6 каналов
Расположение каналов : Front: L C R, Side: L R, LFE
Частота : 48,0 КГц
Метод сжатия : С потерями
Размер потока : 330 Мбайт (23%)
Заголовок : MVO
Язык : Russian
Default : Да
Forced : Нет
Аудио #2
Идентификатор : 3
Формат : AC-3
Формат/Информация : Audio Coding 3
Расширение режима : CM (complete main)
Параметр Endianness формата : Big
Идентификатор кодека : A_AC3
Продолжительность : 1 ч. 43 м.
Вид битрейта : Постоянный
Битрейт : 192 Кбит/сек
Каналы : 2 канала
Расположение каналов : Front: L R
Частота : 48,0 КГц
Метод сжатия : С потерями
Размер потока : 141 Мбайт (10%)
Заголовок : DVO
Язык : Russian
Default : Нет
Forced : Нет
Аудио #3
Идентификатор : 4
Формат : AC-3
Формат/Информация : Audio Coding 3
Расширение режима : CM (complete main)
Параметр Endianness формата : Big
Идентификатор кодека : A_AC3
Продолжительность : 1 ч. 43 м.
Вид битрейта : Постоянный
Битрейт : 192 Кбит/сек
Каналы : 2 канала
Расположение каналов : Front: L R
Частота : 48,0 КГц
Метод сжатия : С потерями
Размер потока : 141 Мбайт (10%)
Язык : Ukrainian
Default : Нет
Forced : Нет
Текст #1
Идентификатор : 5
Формат : UTF-8
Идентификатор кодека : S_TEXT/UTF8
Идентификатор кодека/Информация : UTF-8 Plain Text
Язык : Russian
Default : Да
Forced : Нет
Текст #2
Идентификатор : 6
Формат : UTF-8
Идентификатор кодека : S_TEXT/UTF8
Идентификатор кодека/Информация : UTF-8 Plain Text
Язык : English
Default : Нет
Forced : Нет

Релиз:



   Похожие торренты   Торрент   Размер 
В этой теме нет новых непрочитанных сообщений. Свидание на одну ночь / One Night Stand (1997) WEB-DLRip от MegaPeer | P, P2

15 | 10

2.06 ГБ

В этой теме нет новых непрочитанных сообщений. Свидание на одну ночь / One Night Stand (1997) WEB-DL 720p от MegaPeer | P, P2

19 | 13

3.96 ГБ

В этой теме нет новых непрочитанных сообщений. Свидание на одну ночь / One Night Stand (1997) WEB-DL 1080p | P, P2

28 | 9

7.4 ГБ

В этой теме нет новых непрочитанных сообщений. Ночь в Париже / Open at Night (2016) WEB-DLRip от MegaPeer | iTunes

184 | 18

1.46 ГБ

В этой теме нет новых непрочитанных сообщений. Ночь в Париже / Open at Night (2016) WEB-DLRip от MegaPeer | iTunes

132 | 10

744.84 МБ

В этой теме нет новых непрочитанных сообщений. Небольшое привидение: Одна ночь в проклятом доме / Mostly Ghostly 3: One Night in Doom House (2016) WEB-DLRip от MegaPeer | iTunes

2 | 0

744.9 МБ

В этой теме нет новых непрочитанных сообщений. Ночь в Париже / Open at Night (2016) BDRip от MegaPeer | iTunes

18 | 5

745.52 МБ




Вы не можете начинать темы
Вы не можете отвечать на сообщения
Вы не можете редактировать свои сообщения
Вы не можете удалять свои сообщения
Вы не можете добавлять вложения

Перейти:  
 Вход
ppkBB3cker v.2 © 2008-2014 @ PPK
[ Time : 0.039s | 17 Queries | GZIP : Off ]

cron