img image001 image001 image001 image001 image001 image001 image001 image001 image001 image001 image001 image001 image001 image001 image001 image001

Planets Sun Sun Sun
Статистика раздачи
Автор: PriZraK | Размер: 1.37 ГБ | Добавлен: 22 авг 2016
Раздают: 48    Качают: 15
Скачать торрент
Скачать торрент
Описание торрента

СообщениеДобавлено: 22 авг 2016 


Информация о фильме
Название: Клад на дне озера
Оригинальное название: Käuzchenkuhle
Год выхода: 1969
Жанр: семейный, приключения
Режиссер: Вальтер Бек
В ролях: Мартин Флёрхингер, Дитер Вин, Манфред Круг, Регина Байер, Питер Полащек, Томас Лангхофф, Нико Турофф, Гертруда Брендлер, Берко Аккер, Вера Эльшлегель
О фильме:
Мальчик Ямполь приезжает "на деревню" к дедушке в проливной ливень. Странный незнакомец любезно предлагает подвезти его до дома на... велосипеде. Узнав о том, что этот человек интересовался им, дедушка сильно ругается. Оказывается, в конце войны он стал свидетелем того, как эсэсовцы спрятали в местном озере бочонок с награбленными ценностями. Теперь они хотят достать клад. Ямполь вместе со своими друзьями решает сорвать замыслы преступников...

Производство: ГДР / Deutsche Film (DEFA)
Продолжительность: 01:15:28
Перевод: авторский одноголосый [Юрий Муравский]
Файл
Качество: DVDRip
Формат: AVI
Видео: XviD, 720x544 (4:3), 25.000 fps, 2197 kbps, 0.224 bit/pixel
Аудио #1: русский, AC3 2.0, 48 kHz, 192 kbps
Аудио #2: немецкий, AC3 2.0, 48 kHz, 192 kbps
Формат : AVI
Формат/Информация : Audio Video Interleave
Размер файла : 1,37 Гбайт
Продолжительность : 1 ч. 15 м.
Общий поток : 2590 Кбит/сек
Программа кодирования : VirtualDubMod 1.5.4.1 (build 2178/release)
Библиотека кодирования : VirtualDubMod build 2178/release
Видео
Идентификатор : 0
Формат : MPEG-4 Visual
Профиль формата : Advanced Simple@L5
Параметр BVOP формата : 1
Параметр QPel формата : Нет
Параметр GMC формата : Без точки перехода
Параметр матрицы формата : Выборочная
Идентификатор кодека : XVID
Идентификатор кодека/Подсказка : XviD
Продолжительность : 1 ч. 15 м.
Битрейт : 2197 Кбит/сек
Ширина : 720 пикселей
Высота : 544 пикселя
Соотношение сторон : 4:3
Частота кадров : 25,000 кадров/сек
Цветовое пространство : YUV
Субдискретизация насыщенности : 4:2:0
Битовая глубина : 8 бит
Тип развёртки : Прогрессивная
Метод сжатия : С потерями
Бит/(Пиксели*Кадры) : 0.224
Размер потока : 1,16 Гбайт (85%)
Библиотека кодирования : XviD 1.2.1 (UTC 2008-12-04)
Аудио #1
Идентификатор : 1
Формат : AC-3
Формат/Информация : Audio Coding 3
Расширение режима : CM (complete main)
Параметр Endianness формата : Big
Идентификатор кодека : 2000
Продолжительность : 1 ч. 15 м.
Вид битрейта : Постоянный
Битрейт : 192 Кбит/сек
Каналы : 2 канала
Расположение каналов : Front: L R
Частота : 48,0 КГц
Метод сжатия : С потерями
Размер потока : 104 Мбайт (7%)
Выравнивание : Разделение по промежуткам
Продолжительность промежутка : 96 мс. (2,40 видеокадра)
Время предзагрузки промежутка : 96 мс.
Язык : Russian
Аудио #2
Идентификатор : 2
Формат : AC-3
Формат/Информация : Audio Coding 3
Расширение режима : CM (complete main)
Параметр Endianness формата : Big
Идентификатор кодека : 2000
Продолжительность : 1 ч. 15 м.
Вид битрейта : Постоянный
Битрейт : 192 Кбит/сек
Каналы : 2 канала
Расположение каналов : Front: L R
Частота : 48,0 КГц
Метод сжатия : С потерями
Размер потока : 104 Мбайт (7%)
Выравнивание : Разделение по промежуткам
Продолжительность промежутка : 96 мс. (2,40 видеокадра)
Время предзагрузки промежутка : 96 мс.
Язык : Deutsch

Релиз от:



   Похожие торренты   Торрент   Размер 
В этой теме нет новых непрочитанных сообщений. У озера (1969) DVDRip-AVC

61 | 16

2.91 ГБ

В этой теме нет новых непрочитанных сообщений. У озера (1969) DVDRip-AVC от KORSAR

6 | 0

3.06 ГБ

В этой теме нет новых непрочитанных сообщений. Клад / Holes (2003) DVDRip-AVC | D, P2

253 | 26

2.18 ГБ

В этой теме нет новых непрочитанных сообщений. Клад / The Grave (1996) DVDRip | L1

89 | 11

1.37 ГБ

В этой теме нет новых непрочитанных сообщений. Волшебный клад (1950) DVDRip

22 | 5

128.52 МБ

В этой теме нет новых непрочитанных сообщений. Клад / Holes (2003) DVDRip от MediaClub | КПК

73 | 9

509.61 МБ

В этой теме нет новых непрочитанных сообщений. Клад / Могила / The Grave (1996) DVDRip| A

38 | 0

1.46 ГБ




Вы не можете начинать темы
Вы не можете отвечать на сообщения
Вы не можете редактировать свои сообщения
Вы не можете удалять свои сообщения
Вы не можете добавлять вложения

Перейти:  
 Вход
ppkBB3cker v.2 © 2008-2014 @ PPK
[ Time : 0.020s | 15 Queries | GZIP : Off ]

cron