img image001 image001 image001 image001 image001 image001 image001 image001 image001 image001 image001 image001 image001 image001 image001 image001

Planets Sun Sun Sun
Статистика раздачи
Автор: PriZraK | Размер: 1.37 ГБ | Добавлен: 22 авг 2016
Раздают: 35    Качают: 17
Скачать торрент
Скачать торрент
Описание торрента

СообщениеДобавлено: 22 авг 2016 


Информация о фильме
Название: Гибель корабля «Эмма»
Оригинальное название: Der Untergang der Emma
Год выхода: 1974
Жанр: приключения, семейный
Режиссер: Гельмут Дзюба
В ролях: Уве Питер Требс, Матиас Хольски, Майке Ульрих, Лутс Огустен, Михаель Ярошински, Эрвин Гешоннек, Герман Бейер, Ганс-Петер Райнике, Гюнтер Науманн, Мартин Треттау
О фильме:
Два друга решают помочь старому капитану починить его паром «Эмма», который он потом обещает передать детям. Капитан попадает в больницу, а двое друзей решают, что пока хозяин в больнице можно и самим побыть капитанами. Паром врезается в мост и тонет. Дальнейшие события два веселых друга уже контролировать не в состоянии…

Производство: ГДР / Deutsche Film (DEFA)
Продолжительность: 01:11:07
Перевод: авторский одноголосый [Юрий Муравский]
Файл
Качество: DVDRip
Формат: AVI
Видео: XviD, 688x512 (4:3), 25.000 fps, 2357 kbps, 0.268 bit/pixel
Аудио #1: русский, AC3 2.0, 48 kHz, 192 kbps
Аудио #2: немецкий, AC3 2.0, 48 kHz, 192 kbps
Формат : AVI
Формат/Информация : Audio Video Interleave
Размер файла : 1,37 Гбайт
Продолжительность : 1 ч. 11 м.
Общий поток : 2750 Кбит/сек
Программа кодирования : VirtualDubMod 1.5.4.1 (build 2178/release)
Библиотека кодирования : VirtualDubMod build 2178/release
Видео
Идентификатор : 0
Формат : MPEG-4 Visual
Профиль формата : Advanced Simple@L5
Параметр BVOP формата : 1
Параметр QPel формата : Нет
Параметр GMC формата : Без точки перехода
Параметр матрицы формата : Выборочная
Идентификатор кодека : XVID
Идентификатор кодека/Подсказка : XviD
Продолжительность : 1 ч. 11 м.
Битрейт : 2357 Кбит/сек
Ширина : 688 пикселей
Высота : 512 пикселей
Соотношение сторон : 4:3
Частота кадров : 25,000 кадров/сек
Цветовое пространство : YUV
Субдискретизация насыщенности : 4:2:0
Битовая глубина : 8 бит
Тип развёртки : Прогрессивная
Метод сжатия : С потерями
Бит/(Пиксели*Кадры) : 0.268
Размер потока : 1,17 Гбайт (86%)
Библиотека кодирования : XviD 1.2.1 (UTC 2008-12-04)
Аудио #1
Идентификатор : 1
Формат : AC-3
Формат/Информация : Audio Coding 3
Расширение режима : CM (complete main)
Параметр Endianness формата : Big
Идентификатор кодека : 2000
Продолжительность : 1 ч. 11 м.
Вид битрейта : Постоянный
Битрейт : 192 Кбит/сек
Каналы : 2 канала
Расположение каналов : Front: L R
Частота : 48,0 КГц
Метод сжатия : С потерями
Размер потока : 97,6 Мбайт (7%)
Выравнивание : Разделение по промежуткам
Продолжительность промежутка : 96 мс. (2,40 видеокадра)
Время предзагрузки промежутка : 96 мс.
Язык : Russian
Аудио #2
Идентификатор : 2
Формат : AC-3
Формат/Информация : Audio Coding 3
Расширение режима : CM (complete main)
Параметр Endianness формата : Big
Идентификатор кодека : 2000
Продолжительность : 1 ч. 11 м.
Вид битрейта : Постоянный
Битрейт : 192 Кбит/сек
Каналы : 2 канала
Расположение каналов : Front: L R
Частота : 48,0 КГц
Метод сжатия : С потерями
Размер потока : 97,6 Мбайт (7%)
Выравнивание : Разделение по промежуткам
Продолжительность промежутка : 96 мс. (2,40 видеокадра)
Время предзагрузки промежутка : 96 мс.
Язык : Deutsch

Релиз от:



   Похожие торренты   Торрент   Размер 
В этой теме нет новых непрочитанных сообщений. Эмма / Emma (1996) HDRip от Scarabey | P

122 | 12

1.45 ГБ

В этой теме нет новых непрочитанных сообщений. Эмма / Emma (1996) BDRip 720p от Leonardo | P2

42 | 16

4.37 ГБ

В этой теме нет новых непрочитанных сообщений. Предельно личные отношения: Песня любви 1974 года / Gokushiteki Erosu: Renka 1974 (1974) DVDRip | Sub

37 | 118

1.07 ГБ

В этой теме нет новых непрочитанных сообщений. Командир корабля (1954) DVDRip от Кинорадиомагия

391 | 22

1.37 ГБ

В этой теме нет новых непрочитанных сообщений. Командир корабля (1954) DVDRip от New-Team

10 | 8

1.46 ГБ

В этой теме нет новых непрочитанных сообщений. Командир корабля (1954) DVDRip-AVC от New-Team

9 | 2

1.46 ГБ

В этой теме нет новых непрочитанных сообщений. Командир корабля (1954) DVDRip от New-Team

22 | 16

746.75 МБ




Вы не можете начинать темы
Вы не можете отвечать на сообщения
Вы не можете редактировать свои сообщения
Вы не можете удалять свои сообщения
Вы не можете добавлять вложения

Перейти:  
 Вход
ppkBB3cker v.2 © 2008-2014 @ PPK
[ Time : 0.023s | 15 Queries | GZIP : Off ]

cron