img image001 image001 image001 image001 image001 image001 image001 image001 image001 image001 image001 image001 image001 image001 image001 image001

Planets Sun Sun Sun
Статистика раздачи
Автор: Nickolas3434 | Размер: 3.56 ГБ | Добавлен: 10 май 2016
Раздают: 2    Качают: 0
Скачать торрент
Скачать торрент
Описание торрента

СообщениеДобавлено: 10 май 2016 


Производство: США, Канада / Selima Films AVV, Signature Pictures, MDP Worldwide
Жанр: Боевик, Триллер, Приключения
Режиссер: Жан-Клод Ван Дамм
Актеры: Жан-Клод Ван Дамм, Роджер Мур, Джеймс Римар, Джанет Ганн, Джек МакГи, Аки Алеонг, Абдель Кисси, Луис Мэндилор, Чанг Чинг Пенг Чаплин, Райан Кутрона, Шейн Майер, Мэтт Лион, Джен Санг Отербридж, Питер Вонг, Китао Кодзи, Хэбби Хеск
Описание: Было время, когда в мире еще хватало места для пиратской резни, ловушек контрабандистов, работорговцев и древних тайн загадочного Востока. Когда настоящие мужчины могли отправиться на поиски невероятных приключений. Уличный преступник отправляется в путешествие в поисках своего прошлого и будущего. Его одиссея проходит через самые экзотические страны и живописнейшие уголки земного шара, от подворотен Нью-Йорка до загадочного волшебного тибетского Затерянного Города, где становится для него испытанием на честь и мужество в древних мифических состязаниях «Ган-генг» - боях до победного конца лучших бойцов со всего мира за обладание вожделенным призом - Золотым Драконом.
Продолжительность: 01:34:35
Качество видео: BDRip-AVC
Перевод: Профессиональный (многоголосый закадровый) x3, профессиональный (двуголосый закадровый) x2, авторский (одноголосый закадровый) x5
Язык субтитров: Русский, Английский
Видео: MPEG-4 AVC/H.264, 2700 Kbps, 1024x434
Аудио 01: Русский AC3 2.0, 192 Kbps, 48.0 KHz (Многоголосый закадровый) R5
Аудио 02: Русский AC3 2.0, 192 Kbps, 48.0 KHz (Многоголосый закадровый) Россия
Аудио 03: Русский AC3 2.0, 192 Kbps, 48.0 KHz (Многоголосый закадровый) ОРТ
Аудио 04: Русский AC3 2.0, 192 Kbps, 48.0 KHz (Двуголосый закадровый) ТВЦ
Аудио 05: Русский AC3 5.1, 384 Kbps, 48.0 KHz (Двуголосый закадровый) Twister
Аудио 06: Русский AC3 5.1, 384 Kbps, 48.0 KHz (Одноголосый закадровый) Ю. Живов
Аудио 07: Русский AC3 2.0, 192 Kbps, 48.0 KHz (Одноголосый закадровый) А. Гаврилов
Аудио 08: Русский AC3 2.0, 192 Kbps, 48.0 KHz (Одноголосый закадровый) А. Кашкин
Аудио 09: Русский AC3 2.0, 192 Kbps, 48.0 KHz (Одноголосый закадровый) С. Визгунов
Аудио 10: Русский AC3 2.0, 192 Kbps, 48.0 KHz (Одноголосый закадровый) С. Кузнецов
Аудио 11: Английский AC3 5.1, 384 Kbps, 48.0 KHz (Оригинал)
Общее
Полное имя : В поисках приключений.mkv
Формат : Matroska
Версия формата : Version 1
Размер файла : 3,56 Гбайт
Продолжительность : 1 ч. 34 м.
Общий поток : 5392 Кбит/сек
Дата кодирования : UTC 2015-11-24 16:49:42
Программа кодирования : mkvmerge v2.4.1 ('Use Me') built on Dec 5 2008 18:30:05
Библиотека кодирования : libebml v0.7.7 + libmatroska v0.8.1
Видео
Идентификатор : 1
Формат : AVC
Формат/Информация : Advanced Video Codec
Профиль формата : High@L4.1
Параметр CABAC формата : Да
Параметр ReFrames формата : 10 кадров
Идентификатор кодека : V_MPEG4/ISO/AVC
Продолжительность : 1 ч. 34 м.
Битрейт : 2700 Кбит/сек
Ширина : 1024 пикселя
Высота : 434 пикселя
Соотношение сторон : 2,35:1
Режим частоты кадров : Постоянный
Частота кадров : 23,976 кадра/сек
Цветовое пространство : YUV
Субдискретизация насыщенности : 4:2:0
Битовая глубина : 8 бит
Тип развёртки : Прогрессивная
Бит/(Пиксели*Кадры) : 0.253
Размер потока : 1,72 Гбайт (48%)
Заголовок : В поисках приключений (1996)
Библиотека кодирования : x264 core 146 r2538 121396c
Настройки программы : cabac=1 / ref=10 / deblock=1:-3:-3 / analyse=0x3:0x133 / me=umh / subme=10 / psy=1 / psy_rd=1.00:0.10 / mixed_ref=1 / me_range=48 / chroma_me=1 / trellis=2 / 8x8dct=1 / cqm=0 / deadzone=21,11 / fast_pskip=0 / chroma_qp_offset=-3 / threads=6 / lookahead_threads=1 / sliced_threads=0 / nr=0 / decimate=1 / interlaced=0 / bluray_compat=0 / constrained_intra=0 / bframes=5 / b_pyramid=2 / b_adapt=2 / b_bias=0 / direct=3 / weightb=1 / open_gop=0 / weightp=2 / keyint=240 / keyint_min=22 / scenecut=40 / intra_refresh=0 / rc_lookahead=40 / rc=2pass / mbtree=1 / bitrate=2700 / ratetol=1.0 / qcomp=0.60 / qpmin=10 / qpmax=51 / qpstep=4 / cplxblur=20.0 / qblur=0.5 / ip_ratio=1.40 / aq=1:1.00
Язык : English
Default : Да
Forced : Нет
Аудио #1
Идентификатор : 2
Формат : AC-3
Формат/Информация : Audio Coding 3
Расширение режима : CM (complete main)
Параметр Endianness формата : Big
Идентификатор кодека : A_AC3
Продолжительность : 1 ч. 34 м.
Вид битрейта : Постоянный
Битрейт : 192 Кбит/сек
Каналы : 2 канала
Расположение каналов : Front: L R
Частота : 48,0 КГц
Метод сжатия : С потерями
Размер потока : 130 Мбайт (4%)
Заголовок : AC3 (Многоголосый) R5
Язык : Russian
Default : Да
Forced : Нет
Аудио #2
Идентификатор : 3
Формат : AC-3
Формат/Информация : Audio Coding 3
Расширение режима : CM (complete main)
Параметр Endianness формата : Big
Идентификатор кодека : A_AC3
Продолжительность : 1 ч. 34 м.
Вид битрейта : Постоянный
Битрейт : 192 Кбит/сек
Каналы : 2 канала
Расположение каналов : Front: L R
Частота : 48,0 КГц
Метод сжатия : С потерями
Размер потока : 130 Мбайт (4%)
Заголовок : AC3 (Многоголосый) Россия
Язык : Russian
Default : Нет
Forced : Нет
Аудио #3
Идентификатор : 4
Формат : AC-3
Формат/Информация : Audio Coding 3
Расширение режима : CM (complete main)
Параметр Endianness формата : Big
Идентификатор кодека : A_AC3
Продолжительность : 1 ч. 34 м.
Вид битрейта : Постоянный
Битрейт : 192 Кбит/сек
Каналы : 2 канала
Расположение каналов : Front: L R
Частота : 48,0 КГц
Метод сжатия : С потерями
Размер потока : 130 Мбайт (4%)
Заголовок : AC3 (Многоголосый) ОРТ
Язык : Russian
Default : Нет
Forced : Нет
Аудио #4
Идентификатор : 5
Формат : AC-3
Формат/Информация : Audio Coding 3
Расширение режима : CM (complete main)
Параметр Endianness формата : Big
Идентификатор кодека : A_AC3
Продолжительность : 1 ч. 34 м.
Вид битрейта : Постоянный
Битрейт : 192 Кбит/сек
Каналы : 2 канала
Расположение каналов : Front: L R
Частота : 48,0 КГц
Метод сжатия : С потерями
Размер потока : 130 Мбайт (4%)
Заголовок : AC3 (Двухголосый) ТВЦ
Язык : Russian
Default : Нет
Forced : Нет
Аудио #5
Идентификатор : 6
Формат : AC-3
Формат/Информация : Audio Coding 3
Расширение режима : CM (complete main)
Параметр Endianness формата : Big
Идентификатор кодека : A_AC3
Продолжительность : 1 ч. 34 м.
Вид битрейта : Постоянный
Битрейт : 384 Кбит/сек
Каналы : 6 каналов
Расположение каналов : Front: L C R, Side: L R, LFE
Частота : 48,0 КГц
Метод сжатия : С потерями
Размер потока : 260 Мбайт (7%)
Заголовок : AC3 (Двухголосый) Twister
Язык : Russian
Default : Нет
Forced : Нет
Аудио #6
Идентификатор : 7
Формат : AC-3
Формат/Информация : Audio Coding 3
Расширение режима : CM (complete main)
Параметр Endianness формата : Big
Идентификатор кодека : A_AC3
Продолжительность : 1 ч. 34 м.
Вид битрейта : Постоянный
Битрейт : 384 Кбит/сек
Каналы : 6 каналов
Расположение каналов : Front: L C R, Side: L R, LFE
Частота : 48,0 КГц
Метод сжатия : С потерями
Размер потока : 260 Мбайт (7%)
Заголовок : AC3 (Одноголосый) Ю. Живов
Язык : Russian
Default : Нет
Forced : Нет
Аудио #7
Идентификатор : 8
Формат : AC-3
Формат/Информация : Audio Coding 3
Расширение режима : CM (complete main)
Параметр Endianness формата : Big
Идентификатор кодека : A_AC3
Продолжительность : 1 ч. 34 м.
Вид битрейта : Постоянный
Битрейт : 192 Кбит/сек
Каналы : 2 канала
Расположение каналов : Front: L R
Частота : 48,0 КГц
Метод сжатия : С потерями
Размер потока : 130 Мбайт (4%)
Заголовок : AC3 (Одноголосый) А. Гаврилов
Язык : Russian
Default : Нет
Forced : Нет
Аудио #8
Идентификатор : 9
Формат : AC-3
Формат/Информация : Audio Coding 3
Расширение режима : CM (complete main)
Параметр Endianness формата : Big
Идентификатор кодека : A_AC3
Продолжительность : 1 ч. 34 м.
Вид битрейта : Постоянный
Битрейт : 192 Кбит/сек
Каналы : 2 канала
Расположение каналов : Front: L R
Частота : 48,0 КГц
Метод сжатия : С потерями
Размер потока : 130 Мбайт (4%)
Заголовок : AC3 (Одноголосый) А. Кашкин
Язык : Russian
Default : Нет
Forced : Нет
Аудио #9
Идентификатор : 10
Формат : AC-3
Формат/Информация : Audio Coding 3
Расширение режима : CM (complete main)
Параметр Endianness формата : Big
Идентификатор кодека : A_AC3
Продолжительность : 1 ч. 34 м.
Вид битрейта : Постоянный
Битрейт : 192 Кбит/сек
Каналы : 2 канала
Расположение каналов : Front: L R
Частота : 48,0 КГц
Метод сжатия : С потерями
Размер потока : 130 Мбайт (4%)
Заголовок : AC3 (Одноголосый) С. Визгунов
Язык : Russian
Default : Нет
Forced : Нет
Аудио #10
Идентификатор : 11
Формат : AC-3
Формат/Информация : Audio Coding 3
Расширение режима : CM (complete main)
Параметр Endianness формата : Big
Идентификатор кодека : A_AC3
Продолжительность : 1 ч. 34 м.
Вид битрейта : Постоянный
Битрейт : 192 Кбит/сек
Каналы : 2 канала
Расположение каналов : Front: L R
Частота : 48,0 КГц
Метод сжатия : С потерями
Размер потока : 130 Мбайт (4%)
Заголовок : AC3 (Одноголосый) С. Кузнецов
Язык : Russian
Default : Нет
Forced : Нет
Аудио #11
Идентификатор : 12
Формат : AC-3
Формат/Информация : Audio Coding 3
Расширение режима : CM (complete main)
Параметр Endianness формата : Big
Идентификатор кодека : A_AC3
Продолжительность : 1 ч. 34 м.
Вид битрейта : Постоянный
Битрейт : 384 Кбит/сек
Каналы : 6 каналов
Расположение каналов : Front: L C R, Side: L R, LFE
Частота : 48,0 КГц
Метод сжатия : С потерями
Размер потока : 260 Мбайт (7%)
Заголовок : AC3 (Оригинал)
Язык : English
Default : Нет
Forced : Нет
Текст #1
Идентификатор : 13
Формат : UTF-8
Идентификатор кодека : S_TEXT/UTF8
Идентификатор кодека/Информация : UTF-8 Plain Text
Заголовок : Русские
Язык : Russian
Default : Нет
Forced : Нет
Текст #2
Идентификатор : 14
Формат : UTF-8
Идентификатор кодека : S_TEXT/UTF8
Идентификатор кодека/Информация : UTF-8 Plain Text
Заголовок : Английские
Язык : English
Default : Нет
Forced : Нет[/code]

» Бой, в котором сумоист, казавшийся почти неуязвимым, проигрывает жестоким нокаутом монголу, практически полностью повторяет сцену победы героя Ван Дамма над опасным соперником из Японии в фильме «Кровавый спорт» (1988).
» В турнире участвуют представители следующих стран: США, Советский Союз, Сиам, Турция, Шотландия, Германия, Греция, Испания, Франция, Бразилия, Япония, Монголия, Корея, Китай, а также Африки и острова Окинава (стиль тотэ). Интересно, что Япония, Окинава и Корея, бывшие в 1920-х годах, по сути, одной страной, обозначены как три разные государства; а многочисленные государства и колонии Африки представлены одним бойцом.
» Фильм стал режиссёрским дебютом Жана-Клода Ван Дамма.
» Очень своеобразно выглядят представители Советского Союза на турнире. Они одеты в странные наряды с элементами казачьей формы.
» Когда Роджер Мур представляется в фильме «Доббс, лорд Доббс», он делает это в стиле кинофильмов о Джеймсе Бонде, которыми он известен.

Скриншоты:




   Похожие торренты   Торрент   Размер 
В этой теме нет новых непрочитанных сообщений. В поисках приключений / The Quest (1996) BDRip | P

537 | 35

1.45 ГБ

В этой теме нет новых непрочитанных сообщений. В поисках приключений / The Quest (1996) BDRip-AVC от MediaClub

7 | 4

3.37 ГБ

В этой теме нет новых непрочитанных сообщений. В поисках приключений / The Quest (1996) BDRip 720 от SuperMin

254 | 34

3 ГБ

В этой теме нет новых непрочитанных сообщений. В поисках приключений / The Quest (1996) BDRip 1080p от Freeisland

6 | 9

11.48 ГБ

В этой теме нет новых непрочитанных сообщений. В поисках приключений / The Quest (1996) HDRip-AVC от New-Team | P

92 | 19

744.46 МБ

В этой теме нет новых непрочитанных сообщений. В поисках Галактики / Galaxy Quest (1999) BDRip-AVC от MediaClub | P, P2, A

58 | 2

4.2 ГБ

В этой теме нет новых непрочитанных сообщений. В поисках Галактики / Galaxy Quest (1999) BDRip-AVC от ExKinoRay | P

23 | 0

746.01 МБ




Вы не можете начинать темы
Вы не можете отвечать на сообщения
Вы не можете редактировать свои сообщения
Вы не можете удалять свои сообщения
Вы не можете добавлять вложения

Перейти:  
 Вход
ppkBB3cker v.2 © 2008-2014 @ PPK
[ Time : 0.032s | 17 Queries | GZIP : Off ]

cron