img image001 image001 image001 image001 image001 image001 image001 image001 image001 image001 image001 image001 image001 image001 image001 image001

Planets Sun Sun Sun
Статистика раздачи
Автор: Nickolas3434 | Размер: 4.35 ГБ | Добавлен: 05 май 2016
Раздают: 74    Качают: 2
Скачать торрент
Скачать торрент
Описание торрента

СообщениеДобавлено: 05 май 2016 

Дом у озера

The Lake House

«Можно ли полюбить с первого слова?»



Страна: США, Австралия
Жанр: фэнтези, драма, мелодрама
Год выпуска: 2006
Продолжительность: 01:38:33
Перевод: Профессиональный (полное дублирование), Профессиональный (двухголосый, закадровый), 2 x Авторский, Оригинальный
Субтитры: русские, английские.


Режиссер: Алехандро Агрести / Alejandro Agresti


В ролях: Киану Ривз (Alex Wyler), Сандра Буллок (Kate Forster), Кристофер Пламмер (Simon Wyler), Эбон Мосс-Бакрак (Henry Wyler), Виллеке ван Аммельрой (Kate's Mother), Дилан Уолш (Morgan), Шоре Агдашлу (Anna), Линн Коллинс (Mona), Майк Бакарелла (Mulhern), Кевин Бреннан (Waiter), Фрэнк Каети (Cove Patron), Алайя Карр (Girl Patient)
Дублёры: Всеволод Кузнецов (Alex Wyler), Ольга Зубкова (Kate Forster), Рудольф Панков (Simon Wyler), Александр Гаврилин (Henry Wyler), Светлана Старикова (Kate's Mother), Александр Рахленко (Morgan), Елена Соловьева (Anna), Дальвин Щербаков, Любовь Германова, Элиза Мартиросова


Описание: Зима 2006 года. Ощутив необходимость изменить свою жизнь, доктор Кейт Форестер покидает свой необычный дом у озера в пригороде Иллинойса и устраивается на работу в чикагскую больницу. Единственное, о чем жалеет Кейт, так это о своем красивом доме с огромными окнами, который дарил ей душевное спокойствие. По дороге в город Кейт оставляет в почтовом ящике письмо, которое должен получить новый обитатель дома. Когда же в него вселяется талантливый, но разочаровавшийся в жизни архитектор Алекс Уайлер, он видит этот дом совсем не таким, каким описала его в своем письме Кейт. Для Алекса это жилище имеет особое значение, поскольку оно было построено его отцом, знаменитым архитектором, который ради карьеры оставил свою семью. В итоге Алекс решает придать дому его первоначальный вид. Однажды странный случай заставляет Алекса написать ответное письмо Кейт; в процессе их переписки выясняется, что он живет в 2004 году, а она - в 2006-м. И лишь загадочный почтовый ящик служит неким соединяющим их мостиком. В письмах они делятся друг с другом самым сокровенным, и постепенно между ними возникает заочный любовный роман. Испытывая неодолимое желание встретиться, Кейт и Алекс идут на все, чтобы добиться невозможного, рискуя при этом навсегда потерять друг друга...



MPAA: PG - Рекомендуется присутствие родителей


Семпл


Качество: BDRip
Контейнер: MKV
Видео: AVC, 1280x534 (2.40:1), 3696 kbps, 23,976 fps, 0,226 bpp
Аудио №1: русский / AC3 / 5.1 / 48 kHz / 448 kbps / Дубляж
Аудио №2: русский / AC3 / 5.1 / 48 kHz / 448 kbps / DVO ( Superbit )
Аудио №3: русский / AC3 / 5.1 / 48 kHz / 448 kbps / AVO ( Иванов )
Аудио №4: русский / AC3 / 5.1 / 48 kHz / 640 kbps / AVO ( Королёв )
Аудио №5: английский / AC3 / 5.1 / 48 kHz / 640 kbps
Навигация по главам: есть


--------------------------------------------------------------------------
x264 [info]: frame I:803 Avg QP:15.35 size:103050
x264 [info]: frame P:28681 Avg QP:18.60 size: 36348
x264 [info]: frame B:112302 Avg QP:19.55 size: 14305
x264 [info]: consecutive B-frames: 1.5% 2.9% 5.8% 16.5% 15.4% 38.9% 5.2% 5.5% 1.5% 3.4% 1.1% 1.6% 0.7%
x264 [info]: ref P L0: 47.7% 8.6% 15.8% 7.7% 5.8% 4.5% 3.8% 2.3% 1.9% 1.5% 0.2% 0.0%
-------------------------------------------------------------------------
Format : Matroska
Format version : Version 2
File size : 4.35 GiB
Duration : 1h 38mn
Overall bit rate : 6 323 Kbps
Movie name : = Дом у озера / The Lake House (2006) BDRip 720p by SC Kosmos =
Encoded date : UTC 2016-04-22 21:03:06
Writing application : mkvmerge v5.8.0 ('No Sleep / Pillow') built on Sep 2 2012 15:37:04
Writing library : libebml v1.2.3 + libmatroska v1.3.0
Attachment : Yes
Video
ID : 1
Format : AVC
Format/Info : Advanced Video Codec
Format profile : High@L4.1
Format settings, CABAC : Yes
Format settings, ReFrames : 10 frames
Codec ID : V_MPEG4/ISO/AVC
Duration : 1h 38mn
Bit rate : 3 696 Kbps
Width : 1 280 pixels
Height : 534 pixels
Display aspect ratio : 2.40:1
Frame rate : 23.976 fps
Color space : YUV
Chroma subsampling : 4:2:0
Bit depth : 8 bits
Scan type : Progressive
Bits/(Pixel*Frame) : 0.226
Stream size : 2.46 GiB (57%)
Title : Дом у озера / The Lake House (2006) BDRip 720p by SC Kosmos
Writing library : x264 core 146 r2538 121396c
Encoding settings : cabac=1 / ref=10 / deblock=1:0:0 / analyse=0x3:0x113 / me=umh / subme=11 / psy=1 / psy_rd=1.00:0.00 / mixed_ref=1 / me_range=32 / chroma_me=1 / trellis=2 / 8x8dct=1 / cqm=0 / deadzone=21,11 / fast_pskip=0 / chroma_qp_offset=-2 / threads=12 / lookahead_threads=3 / sliced_threads=0 / nr=0 / decimate=0 / interlaced=0 / bluray_compat=0 / constrained_intra=0 / bframes=12 / b_pyramid=2 / b_adapt=2 / b_bias=0 / direct=3 / weightb=1 / open_gop=0 / weightp=2 / keyint=240 / keyint_min=23 / scenecut=40 / intra_refresh=0 / rc=2pass / mbtree=0 / bitrate=3696 / ratetol=1.0 / qcomp=0.60 / qpmin=0 / qpmax=69 / qpstep=4 / cplxblur=20.0 / qblur=0.5 / ip_ratio=1.40 / pb_ratio=1.30 / aq=1:1.00 / zones=136814,141785,b=0.25
Language : English
Default : Yes
Forced : No
Audio #1
ID : 2
Format : AC-3
Format/Info : Audio Coding 3
Mode extension : CM (complete main)
Codec ID : A_AC3
Duration : 1h 38mn
Bit rate mode : Constant
Bit rate : 448 Kbps
Channel(s) : 6 channels
Channel positions : Front: L C R, Side: L R, LFE
Sampling rate : 48.0 KHz
Bit depth : 16 bits
Compression mode : Lossy
Stream size : 316 MiB (7%)
Title : Дубляж
Language : Russian
Default : Yes
Forced : No
Audio #2
ID : 3
Format : AC-3
Format/Info : Audio Coding 3
Mode extension : CM (complete main)
Codec ID : A_AC3
Duration : 1h 38mn
Bit rate mode : Constant
Bit rate : 448 Kbps
Channel(s) : 6 channels
Channel positions : Front: L C R, Side: L R, LFE
Sampling rate : 48.0 KHz
Bit depth : 16 bits
Compression mode : Lossy
Stream size : 316 MiB (7%)
Title : DVO ( Superbit )
Language : Russian
Default : No
Forced : No
Audio #3
ID : 4
Format : AC-3
Format/Info : Audio Coding 3
Mode extension : CM (complete main)
Codec ID : A_AC3
Duration : 1h 38mn
Bit rate mode : Constant
Bit rate : 448 Kbps
Channel(s) : 6 channels
Channel positions : Front: L C R, Side: L R, LFE
Sampling rate : 48.0 KHz
Bit depth : 16 bits
Compression mode : Lossy
Stream size : 316 MiB (7%)
Title : AVO ( Иванов )
Language : Russian
Default : No
Forced : No
Audio #4
ID : 5
Format : AC-3
Format/Info : Audio Coding 3
Mode extension : CM (complete main)
Codec ID : A_AC3
Duration : 1h 38mn
Bit rate mode : Constant
Bit rate : 640 Kbps
Channel(s) : 6 channels
Channel positions : Front: L C R, Side: L R, LFE
Sampling rate : 48.0 KHz
Bit depth : 16 bits
Compression mode : Lossy
Stream size : 451 MiB (10%)
Title : AVO ( Королёв )
Language : Russian
Default : No
Forced : No
Audio #5
ID : 6
Format : AC-3
Format/Info : Audio Coding 3
Mode extension : CM (complete main)
Codec ID : A_AC3
Duration : 1h 38mn
Bit rate mode : Constant
Bit rate : 640 Kbps
Channel(s) : 6 channels
Channel positions : Front: L C R, Side: L R, LFE
Sampling rate : 48.0 KHz
Bit depth : 16 bits
Compression mode : Lossy
Stream size : 451 MiB (10%)
Language : English
Default : No
Forced : No
Text #1
ID : 7
Format : UTF-8
Codec ID : S_TEXT/UTF8
Codec ID/Info : UTF-8 Plain Text
Language : Russian
Default : Yes
Forced : No
Text #2
ID : 8
Format : UTF-8
Codec ID : S_TEXT/UTF8
Codec ID/Info : UTF-8 Plain Text
Language : Russian
Default : No
Forced : No
Text #3
ID : 9
Format : UTF-8
Codec ID : S_TEXT/UTF8
Codec ID/Info : UTF-8 Plain Text
Language : Russian
Default : No
Forced : No
Text #4
ID : 10
Format : UTF-8
Codec ID : S_TEXT/UTF8
Codec ID/Info : UTF-8 Plain Text
Language : English
Default : No
Forced : No
Text #5
ID : 11
Format : UTF-8
Codec ID : S_TEXT/UTF8
Codec ID/Info : UTF-8 Plain Text
Title : SDH
Language : English
Default : No
Forced : No
Menu
00:00:00.000 : en:00:00:00.000
00:03:35.382 : en:00:03:35.382
00:07:38.291 : en:00:07:38.291
00:13:18.131 : en:00:13:18.131
00:17:17.203 : en:00:17:17.203
00:23:39.418 : en:00:23:39.418
00:26:58.450 : en:00:26:58.450
00:32:44.629 : en:00:32:44.629
00:36:40.365 : en:00:36:40.365
00:40:25.423 : en:00:40:25.423
00:45:45.743 : en:00:45:45.743
00:50:27.858 : en:00:50:27.858
00:59:24.728 : en:00:59:24.728
01:03:21.297 : en:01:03:21.297
01:09:23.993 : en:01:09:23.993
01:13:14.890 : en:01:13:14.890
01:15:48.544 : en:01:15:48.544
01:20:21.483 : en:01:20:21.483
01:24:50.752 : en:01:24:50.752
01:28:11.119 : en:01:28:11.119
01:35:03.531 : en:01:35:03.531









   Похожие торренты   Торрент   Размер 
В этой теме нет новых непрочитанных сообщений. Дом у озера / The Lake House (2006) BDRip 720p от Leonardo and Scarabey

823 | 48

2.87 ГБ

В этой теме нет новых непрочитанных сообщений. Дом у озера / The Lake House (2006) BDRip | A

112 | 10

1.46 ГБ

В этой теме нет новых непрочитанных сообщений. Дом у озера / The Lake House (2006) BDRip-AVC | D

419 | 27

748.94 МБ

В этой теме нет новых непрочитанных сообщений. Дом у озера / The Lake House (2006) BDRip 1080p | D, P2, A

13 | 2

9.35 ГБ

В этой теме нет новых непрочитанных сообщений. Дом у озера / The Lake House (2006) HDRip от Scarabey | D

61 | 1

746.18 МБ

В этой теме нет новых непрочитанных сообщений. Дом у озера / The Lake House (2006) HDRip от Scarabey | D

543 | 18

1.45 ГБ

В этой теме нет новых непрочитанных сообщений. Воспоминания Хрустального озера: Полная история пятницы 13-го / Crystal Lake Memories: The Complete History of Friday the 13th (2006) BDRip 720p

0 | 1

8.63 ГБ




Вы не можете начинать темы
Вы не можете отвечать на сообщения
Вы не можете редактировать свои сообщения
Вы не можете удалять свои сообщения
Вы не можете добавлять вложения

Перейти:  
 Вход
ppkBB3cker v.2 © 2008-2014 @ PPK
[ Time : 0.037s | 19 Queries | GZIP : Off ]

cron