img image001 image001 image001 image001 image001 image001 image001 image001 image001 image001 image001 image001 image001 image001 image001 image001

Planets Sun Sun Sun
Статистика раздачи
Автор: Nickolas3434 | Размер: 1.98 ГБ | Добавлен: 18 сен 2015
Раздают: 212    Качают: 17
Скачать торрент
Скачать торрент
Описание торрента

СообщениеДобавлено: 18 сен 2015 

Информация о фильме
Название: Ферма Чарли
Оригинальное название: Charlie's Farm
Год выхода: 2014
Жанр: ужасы
Режиссер: Крис Сан
В ролях: Тара Рид, Нэйтан Джонс, Кэйн Ходдер, Билл Моусли, Allira Jaques, Дженна Шанель Хэйес, Дэвид Бимиш, Камерон Колфилд, Dean Kirkright, Мадлен Кеннеди
О фильме: Современная молодежь очень часто совершает необдуманные поступки. Чаще всего это происходит из-за того, что им просто скучно и хочется получить заряд адреналина. Так и в этом фильме группа молодых людей решает отправиться в далёкую Австралию и там пощекотать свои нервы.
Они хотят посетить самое таинственное место этого континента. Ферму, где несколько лет назад произошли очень странные события. Толпа разъяренных жителей разорвала на куски фермера и его семью. Конечно, преступление было раскрыто, а виновные наказаны, но до сих пор на этой ферме происходит, что-то очень странное, можно сказать ужасающее. Что их ждёт на этой ферме? Смогут ли они выжить?


Выпущено: Австралия / Slaughter FX
Продолжительность: 01:33:04
Озвучивание: Любительское (одноголосое) [Хихикающий доктор]
Любительское (одноголосое) [datynet]
Перевод: anton1
Субтитры: Английские, датские
Файл
Качество: HDRip (AVC)
Видео: MPEG-4 AVC, 1699 Кбит/с, 1024x434
Аудио: Русский, английский (AC3, 6 ch, 448 Кбит/с)
General
Unique ID : 176922375226046197244027927758999526389 (0x851A029131D9806795A5DC4574FA1BF5)
Complete name : C:Farm.Charley.2014.HDRip.AVC.ExKinoRay.mkv
Format : Matroska
Format version : Version 4 / Version 2
File size : 1.98 GiB
Duration : 1h 33mn
Overall bit rate : 3 042 Kbps
Movie name : Charlie's Farm 2014 from ExKinoRay
Encoded date : UTC 2015-09-18 03:53:40
Writing application : mkvmerge v6.6.0 ('The Edge Of The In Between') built on Dec 1 2013 17:55:00
Writing library : libebml v1.3.0 + libmatroska v1.4.1
Video
ID : 1
Format : AVC
Format/Info : Advanced Video Codec
Format profile : High@L4.1
Format settings, CABAC : Yes
Format settings, ReFrames : 10 frames
Codec ID : V_MPEG4/ISO/AVC
Duration : 1h 33mn
Bit rate : 1 699 Kbps
Width : 1 024 pixels
Height : 434 pixels
Display aspect ratio : 2.35:1
Frame rate mode : Constant
Frame rate : 24.000 fps
Color space : YUV
Chroma subsampling : 4:2:0
Bit depth : 8 bits
Scan type : Progressive
Bits/(Pixel*Frame) : 0.159
Stream size : 1.07 GiB (54%)
Title : Enigma
Writing library : x264 core 133 r2334 a3ac64b
Encoding settings : cabac=1 / ref=10 / deblock=1:-2:-2 / analyse=0x3:0x113 / me=umh / subme=10 / psy=1 / psy_rd=1.05:0.15 / mixed_ref=1 / me_range=32 / chroma_me=1 / trellis=2 / 8x8dct=1 / cqm=0 / deadzone=21,11 / fast_pskip=0 / chroma_qp_offset=-3 / threads=12 / lookahead_threads=2 / sliced_threads=0 / nr=0 / decimate=0 / interlaced=0 / bluray_compat=0 / constrained_intra=0 / bframes=8 / b_pyramid=2 / b_adapt=2 / b_bias=0 / direct=3 / weightb=1 / open_gop=0 / weightp=2 / keyint=240 / keyint_min=24 / scenecut=40 / intra_refresh=0 / rc_lookahead=40 / rc=2pass / mbtree=0 / bitrate=1699 / ratetol=1.0 / qcomp=0.60 / qpmin=0 / qpmax=51 / qpstep=4 / cplxblur=20.0 / qblur=0.5 / vbv_maxrate=50000 / vbv_bufsize=62500 / nal_hrd=none / ip_ratio=1.40 / pb_ratio=1.30 / aq=1:1.00
Language : English
Default : Yes
Forced : No
Color primaries : BT.709
Transfer characteristics : BT.709
Matrix coefficients : BT.709
Audio #1
ID : 2
Format : AC-3
Format/Info : Audio Coding 3
Mode extension : CM (complete main)
Format settings, Endianness : Big
Codec ID : A_AC3
Duration : 1h 33mn
Bit rate mode : Constant
Bit rate : 448 Kbps
Channel(s) : 6 channels
Channel positions : Front: L C R, Side: L R, LFE
Sampling rate : 48.0 KHz
Bit depth : 16 bits
Compression mode : Lossy
Stream size : 298 MiB (15%)
Title : xixidok
Language : Russian
Default : Yes
Forced : No
Audio #2
ID : 3
Format : AC-3
Format/Info : Audio Coding 3
Mode extension : CM (complete main)
Format settings, Endianness : Big
Codec ID : A_AC3
Duration : 1h 33mn
Bit rate mode : Constant
Bit rate : 448 Kbps
Channel(s) : 6 channels
Channel positions : Front: L C R, Side: L R, LFE
Sampling rate : 48.0 KHz
Bit depth : 16 bits
Compression mode : Lossy
Stream size : 298 MiB (15%)
Title : datynet
Language : Russian
Default : No
Forced : No
Audio #3
ID : 4
Format : AC-3
Format/Info : Audio Coding 3
Mode extension : CM (complete main)
Format settings, Endianness : Big
Codec ID : A_AC3
Duration : 1h 33mn
Bit rate mode : Constant
Bit rate : 448 Kbps
Channel(s) : 6 channels
Channel positions : Front: L C R, Side: L R, LFE
Sampling rate : 48.0 KHz
Bit depth : 16 bits
Compression mode : Lossy
Stream size : 298 MiB (15%)
Language : English
Default : No
Forced : No
Text #1
ID : 5
Format : UTF-8
Codec ID : S_TEXT/UTF8
Codec ID/Info : UTF-8 Plain Text
Language : English
Default : No
Forced : No
Text #2
ID : 6
Format : UTF-8
Codec ID : S_TEXT/UTF8
Codec ID/Info : UTF-8 Plain Text
Language : Dutch
Default : No
Forced : No
Menu
00:00:00.000 : en:00:00:00.000
00:09:30.833 : en:00:09:30.833
00:18:06.000 : en:00:18:06.000
00:27:33.250 : en:00:27:33.250
00:37:02.083 : en:00:37:02.083
00:47:24.042 : en:00:47:24.042
00:56:21.833 : en:00:56:21.833
01:05:37.083 : en:01:05:37.083
01:17:22.833 : en:01:17:22.833
01:28:39.750 : en:01:28:39.750


Релиз от:
Автор релиза:



   Похожие торренты   Торрент   Размер 
В этой теме нет новых непрочитанных сообщений. Ферма Чарли / Charlie's Farm (2014) HDRip от ExKinoRay | L1

280 | 27

1.37 ГБ

В этой теме нет новых непрочитанных сообщений. Ферма Чарли / Charlie's Farm (2014) HDRip | L1

1601 | 164

1.45 ГБ

В этой теме нет новых непрочитанных сообщений. Ферма Чарли / Charlie's Farm (2014) BDRip 1080p | L1

52 | 21

8.02 ГБ

В этой теме нет новых непрочитанных сообщений. Ферма Чарли / Charlie's Farm (2014) BDRemux 1080p от NovaLan | L1

13 | 4

21.75 ГБ

В этой теме нет новых непрочитанных сообщений. Чарли, Чарли / Charlie Charlie (2016) HDRip | L1

1 | 0

698.71 МБ

В этой теме нет новых непрочитанных сообщений. Ангелы Чарли / Charlie's Angels (2000) HDRip-AVC от ExKinoRay | D

19 | 0

745.65 МБ

В этой теме нет новых непрочитанных сообщений. Ангелы Чарли 2: Только вперед / Charlie's Angels: Full Throttle (2003) HDRip-AVC от ExKinoRay | D

14 | 3

745.51 МБ




Вы не можете начинать темы
Вы не можете отвечать на сообщения
Вы не можете редактировать свои сообщения
Вы не можете удалять свои сообщения
Вы не можете добавлять вложения

Перейти:  
 Вход
ppkBB3cker v.2 © 2008-2014 @ PPK
[ Time : 0.040s | 17 Queries | GZIP : Off ]

cron