img image001 image001 image001 image001 image001 image001 image001 image001 image001 image001 image001 image001 image001 image001 image001 image001

Planets Sun Sun Sun
Статистика раздачи
Автор: Снежана | Размер: 6.75 ГБ | Добавлен: 21 июл 2013
Раздают: 19    Качают: 5
Скачать торрент
Скачать торрент
Описание торрента

СообщениеДобавлено: 21 июл 2013 

#77

Информация о фильме
Название: Тор
Оригинальное название: Thor
Год выхода: 2011
Жанр: фэнтези, боевик, драма, приключения
Режиссер: Кеннет Брэна
В ролях: Натали Портман, Энтони Хопкинс, Крис Хемсворт, Том Хиддлстон, Стеллан Скарсгард, Кэт Деннингс, Кларк Грегг, Идрис Эльба, Колм Фиор, Рэй Стивенсон и др.

О фильме:
Эпическое приключение происходит как на нашей планете Земля, так и в вымышленном королевстве богов Асгарде. В центре истории — Могучий Тор, сильный, но высокомерный воин, чьи безрассудные поступки возрождают древнюю войну в Асгарде. Тора отправляют в ссылку на Землю, лишают сил и заставляют жить среди обычных людей в качестве наказания. Тор узнает, сколько требуется сил, чтобы стать настоящим героем, когда самый опасный злодей его мира направляет темные силы поглотить Землю.

Страна: США, Paramount Pictures, Marvel Entertainment
Продолжительность: 01:54:49
Перевод: Дублированный [лицензия]

Файл
Кодек: MKV
Качество: BDRip 720p | 3D-Videos
Видео: x264, 1280x1440 23.976 кадр/сек 6964 Кбит/сек
Аудио 1: Русский AC3, 6 каналов, 640 Кбит/сек, 48,0 КГц
Аудио 2: Английский, AC3, 6 каналов, 640 Кбит/сек, 48,0 КГц
Субтитры: английские
Общее
Уникальный идентификатор : 224776141662692198090890095334838541318 (0xA91A4F69588BDB62B232A15D26309C06)
Полное имя : M:3D-RuGroupThor.3D.2011.BDRip.720p.OU.x264.AC3.3D-RuGroup.mkv
Формат : Matroska
Размер файла : 6,75 Гбайт
Продолжительность : 1 ч. 54 м.
Общий поток : 8411 Кбит/сек
Название фильма : Thor.3D.2011.BDRip.720p.OU.x264.AC3.3D-RuGroup
Дата кодирования : UTC 2011-09-12 14:00:52
Программа кодирования : mkvmerge v3.4.0 ('Rapunzel') сборка от May 15 2010 09:38:20
Библиотека кодирования : libebml v0.8.0 + libmatroska v0.9.0

Видео
Идентификатор : 1
Формат : AVC
Формат/Информация : Advanced Video Codec
Профиль формата : High@L4.0
Параметр CABAC формата : Да
Параметр ReFrames формата : 4 кадра
Идентификатор кодека : V_MPEG4/ISO/AVC
Продолжительность : 1 ч. 54 м.
Битрейт : 6964 Кбит/сек
Ширина : 1280 пикс.
Высота : 1440 пикс.
Соотношение сторон : 0,889
Частота кадров : 23,976 кадр/сек
Цветовое пространство : YUV
Подвыборка цветности : 4:2:0
Битовая глубина : 8 бит
Тип развёртки : Прогрессивная
Бит/(Пиксели*Кадры) : 0.158
Размер потока : 5,59 Гбайт (83%)
Заголовок : Thor
Библиотека кодирования : x264 core 114 r1924 08d04a4
Настройки программы : cabac=1 / ref=4 / deblock=1:-3:-3 / analyse=0x3:0x133 / me=umh / subme=9 / psy=1 / psy_rd=1.00:0.15 / mixed_ref=1 / me_range=16 / chroma_me=1 / trellis=2 / 8x8dct=1 / cqm=0 / deadzone=21,11 / fast_pskip=0 / chroma_qp_offset=-3 / threads=3 / sliced_threads=0 / nr=0 / decimate=1 / interlaced=0 / constrained_intra=0 / bframes=6 / b_pyramid=2 / b_adapt=2 / b_bias=0 / direct=3 / weightb=1 / open_gop=0 / weightp=2 / keyint=250 / keyint_min=23 / scenecut=40 / intra_refresh=0 / rc_lookahead=40 / rc=crf / mbtree=1 / crf=18.0 / qcomp=0.70 / qpmin=0 / qpmax=51 / qpstep=4 / ip_ratio=1.40 / aq=1:0.70

Аудио #1
Идентификатор : 2
Формат : AC-3
Формат/Информация : Audio Coding 3
Расширение режима : CM (complete main)
Идентификатор кодека : A_AC3
Продолжительность : 1 ч. 54 м.
Вид битрейта : Постоянный
Битрейт : 640 Кбит/сек
Каналы : 6 каналов
Расположение каналов : Front: L C R, Side: L R, LFE
Частота : 48,0 КГц
Битовая глубина : 16 бит
Метод сжатия : С потерями
Размер потока : 526 Мбайт (8%)
Заголовок : AC3 5.1 @ 640 kbps - Дубляж, Blu-ray CEE
Язык : Russian

Аудио #2
Идентификатор : 3
Формат : AC-3
Формат/Информация : Audio Coding 3
Расширение режима : CM (complete main)
Идентификатор кодека : A_AC3
Продолжительность : 1 ч. 54 м.
Вид битрейта : Постоянный
Битрейт : 640 Кбит/сек
Каналы : 6 каналов
Расположение каналов : Front: L C R, Side: L R, LFE
Частота : 48,0 КГц
Битовая глубина : 16 бит
Метод сжатия : С потерями
Размер потока : 526 Мбайт (8%)
Заголовок : original
Язык : English

Текст #1
Идентификатор : 4
Формат : UTF-8
Идентификатор кодека : S_TEXT/UTF8
Идентификатор кодека/Информация : UTF-8 Plain Text
Язык : Russian

Текст #2
Идентификатор : 5
Формат : UTF-8
Идентификатор кодека : S_TEXT/UTF8
Идентификатор кодека/Информация : UTF-8 Plain Text
Язык : English

Меню
00:00:00.000 : en:Chapter 01
00:10:38.137 : en:Chapter 02
00:17:33.135 : en:Chapter 03
00:26:02.602 : en:Chapter 04
00:32:28.196 : en:Chapter 05
00:37:28.412 : en:Chapter 06
00:42:14.198 : en:Chapter 07
00:52:10.377 : en:Chapter 08
01:01:24.972 : en:Chapter 09
01:08:45.538 : en:Chapter 10
01:15:39.159 : en:Chapter 11
01:21:19.249 : en:Chapter 12
01:30:35.346 : en:Chapter 13
01:40:58.177 : en:Chapter 14
01:45:13.724 : en:Chapter 15
01:53:06.196 : en:Chapter 16




   Похожие торренты   Торрент   Размер 
В этой теме нет новых непрочитанных сообщений. Тор / Thor (2011) BDRip 1080p от GORESEWAGE | 3D-Video | OU

25 | 11

23.78 ГБ

В этой теме нет новых непрочитанных сообщений. Тор / Thor (2011) BDRip 1080p от GORESEWAGE | 3D-Video | HOU

174 | 34

15.35 ГБ

В этой теме нет новых непрочитанных сообщений. Тор / Thor (2011) BDRip 1080p от GORESEWAGE | 3D-Video | HSBS

18 | 5

16.29 ГБ

В этой теме нет новых непрочитанных сообщений. Тор 2: Царство тьмы / Thor: The Dark World (2013) BDRip 720p от HQ-ViDEO | Лицензия

294 | 189

7.13 ГБ

В этой теме нет новых непрочитанных сообщений. Тор / Thor (2011) BDRip 720p от GORESEWAGE

5 | 6

10.74 ГБ

В этой теме нет новых непрочитанных сообщений. Тор / Thor (2011) BDRip 720p от Leonardo and Scarabey | Лицензия

510 | 39

4.57 ГБ

В этой теме нет новых непрочитанных сообщений. Тор: Легенда викингов / Legends of Valhalla: Thor (2011) BDRip 720p от HELLYWOOD | Лицензия

32 | 16

2.5 ГБ




Вы не можете начинать темы
Вы не можете отвечать на сообщения
Вы не можете редактировать свои сообщения
Вы не можете удалять свои сообщения
Вы не можете добавлять вложения

Перейти:  
 Вход
ppkBB3cker v.2 © 2008-2014 @ PPK
[ Time : 0.020s | 15 Queries | GZIP : Off ]

cron