img image001 image001 image001 image001 image001 image001 image001 image001 image001 image001 image001 image001 image001 image001 image001 image001

Planets Sun Sun Sun
Статистика раздачи
Автор: Nickolas3434 | Размер: 4.37 ГБ | Добавлен: 20 июн 2015
Раздают: 48    Качают: 8
Скачать торрент
Скачать торрент
Описание торрента

СообщениеДобавлено: 20 июн 2015 


Информация о фильме
Название: Челюсти
Оригинальное название: Jaws
Год выхода: 1975
Жанр: триллер, приключения, ужасы
Режиссер: Стивен Спилберг
В ролях: Рой Шайдер, Роберт Шоу, Ричард Дрейфусс, Лоррэйн Гари, Мюррэй Хэмилтон, Карл Готтлиб, Джефри Крамер, Сьюзэн Бэклайни, Джонатан Филли, Крис Ребелло, Джей Мелло, Ли Фиерро, Джеффри Вурис, Крэйг Кингсбери, Др. Роберт Невин, Питер Бенчли, Тед Гроссман, Крис Анастасио, Джон Бар, Эллисон Кейн, Роберт Кэрролл, Эдвард Чалмерс мл., Роберт Чэмберс, Денис Чешир, Фритци Джейн Кортни...
О фильме:
Действие картины протекает в течение пяти дней — на острове Э́мити, где расположен небольшой курортный городок. В этом тихом и солнечном месте произошли ужасные трагические события, начало которым было положено ранним утром, когда шеф местной полиции Мартин Броуди и его помощник находят на берегу остатки тела девушки. Она стала первой жертвой огромной белой акулы, которая появилась у берегов Эмити…
С каждым днем число жертв кровожадной акулы продолжает увеличиваться. Сможет ли отважный охотник на акул, ветеран Второй мировой войны, рыбак Квинт на своём судне выловить и убить акулу-людоеда? В опасную морскую экспедицию вместе с ним отправляются Мартин Броуди и прибывший на остров эксперт из национального института океанографии Мэтт Хупер.

Страна: США
Студия: Universal Pictures, Zanuck/Brown Productions
Продолжительность: 02:04:01
Перевод: Профессиональный (многоголосый закадровый) + Авторский (одноголосый) x3.
Файл
Кодек: h.264
Качество: BDRip-AVC
Видео: MPEG-4, 1024x432, 23.976 fps ~2800 kbps
Звук:
1) 48 KHz, AC3, 6 ch ~448 Kbps - MVO Лицензия [R5]
2) 48 KHz, AC3, 6 ch ~448 Kbps - AVO [Гаврилов]
3) 48 KHz, AC3, 6 ch ~448 Kbps - AVO [Живов]
4) 48 KHz, AC3, 6 ch ~448 Kbps - AVO [Либергал]
5) 48 KHz, AC3, 6 ch ~448 Kbps - Original
Media Info:
General
Unique ID : 198212177751364205493361944181744939016 (0x951E46DF77E30C10936E5FE933213008)
Format : Matroska
Format version : Version 4 / Version 2
File size : 4.37 GiB
Duration : 2h 4mn
Overall bit rate : 5 039 Kbps
Encoded date : UTC 2015-06-19 07:32:15
Writing application : mkvmerge v7.9.0 ('Birds') 64bit
Writing library : Lavf55.12.0
Attachements : Cover.jpg
Video
ID : 1
Format : AVC
Format/Info : Advanced Video Codec
Format profile : High@L4.1
Format settings, CABAC : Yes
Format settings, ReFrames : 12 frames
Codec ID : V_MPEG4/ISO/AVC
Duration : 2h 4mn
Bit rate : 2 800 Kbps
Width : 1 024 pixels
Height : 432 pixels
Display aspect ratio : 2.40:1
Frame rate mode : Constant
Frame rate : 23.976 fps
Color space : YUV
Chroma subsampling : 4:2:0
Bit depth : 8 bits
Scan type : Progressive
Bits/(Pixel*Frame) : 0.264
Stream size : 2.34 GiB (54%)
Title : MPEG-4, 1024x432, 23.976 fps ~2800 kbps
Writing library : x264 core 142 r2479 dd79a61
Encoding settings : cabac=1 / ref=12 / deblock=1:-3:-2 / analyse=0x3:0x113 / me=umh / subme=10 / psy=1 / psy_rd=1.00:0.00 / mixed_ref=1 / me_range=48 / chroma_me=1 / trellis=2 / 8x8dct=1 / cqm=0 / deadzone=21,11 / fast_pskip=0 / chroma_qp_offset=-2 / threads=3 / lookahead_threads=1 / sliced_threads=0 / nr=0 / decimate=1 / interlaced=0 / bluray_compat=0 / constrained_intra=0 / bframes=16 / b_pyramid=2 / b_adapt=2 / b_bias=0 / direct=3 / weightb=1 / open_gop=0 / weightp=2 / keyint=240 / keyint_min=24 / scenecut=40 / intra_refresh=0 / rc_lookahead=50 / rc=2pass / mbtree=1 / bitrate=2800 / ratetol=1.0 / qcomp=0.60 / qpmin=0 / qpmax=69 / qpstep=4 / cplxblur=20.0 / qblur=0.5 / vbv_maxrate=62500 / vbv_bufsize=78125 / nal_hrd=none / filler=0 / ip_ratio=1.40 / aq=1:1.00
Language : English
Default : Yes
Forced : No
Color range : Limited
Color primaries : BT.709
Transfer characteristics : BT.709
Matrix coefficients : BT.709
_STATISTICS_WRITING_APP : mkvmerge v7.9.0 ('Birds') 64bit
_STATISTICS_WRITING_DATE_UT : 2015-06-19 07:32:15
_STATISTICS_TAGS : BPS DURATION NUMBER_OF_FRAMES NUMBER_OF_BYTES
DURATION : 02:03:54.678000000
NUMBER_OF_FRAMES : 178254
NUMBER_OF_BYTES : 2602262040
Audio #1
ID : 2
Format : AC-3
Format/Info : Audio Coding 3
Mode extension : CM (complete main)
Format settings, Endianness : Big
Codec ID : A_AC3
Duration : 2h 4mn
Bit rate mode : Constant
Bit rate : 448 Kbps
Channel(s) : 6 channels
Channel positions : Front: L C R, Side: L R, LFE
Sampling rate : 48.0 KHz
Compression mode : Lossy
Stream size : 397 MiB (9%)
Title : 48 KHz, AC3, 6 ch ~448 Kbps - MVO Лицензия [R5]
Language : Russian
Default : Yes
Forced : No
_STATISTICS_WRITING_APP : mkvmerge v7.9.0 ('Birds') 64bit
_STATISTICS_WRITING_DATE_UT : 2015-06-19 07:32:15
_STATISTICS_TAGS : BPS DURATION NUMBER_OF_FRAMES NUMBER_OF_BYTES
DURATION : 02:03:54.688000000
NUMBER_OF_FRAMES : 232334
NUMBER_OF_BYTES : 416342528
Audio #2
ID : 3
Format : AC-3
Format/Info : Audio Coding 3
Mode extension : CM (complete main)
Format settings, Endianness : Big
Codec ID : A_AC3
Duration : 2h 4mn
Bit rate mode : Constant
Bit rate : 448 Kbps
Channel(s) : 6 channels
Channel positions : Front: L C R, Side: L R, LFE
Sampling rate : 48.0 KHz
Compression mode : Lossy
Stream size : 397 MiB (9%)
Title : 48 KHz, AC3, 6 ch ~448 Kbps - AVO [Гаврилов]
Language : Russian
Default : No
Forced : No
_STATISTICS_WRITING_APP : mkvmerge v7.9.0 ('Birds') 64bit
_STATISTICS_WRITING_DATE_UT : 2015-06-19 07:32:15
_STATISTICS_TAGS : BPS DURATION NUMBER_OF_FRAMES NUMBER_OF_BYTES
DURATION : 02:04:01.120000000
NUMBER_OF_FRAMES : 232535
NUMBER_OF_BYTES : 416702720
Audio #3
ID : 4
Format : AC-3
Format/Info : Audio Coding 3
Mode extension : CM (complete main)
Format settings, Endianness : Big
Codec ID : A_AC3
Duration : 2h 4mn
Bit rate mode : Constant
Bit rate : 448 Kbps
Channel(s) : 6 channels
Channel positions : Front: L C R, Side: L R, LFE
Sampling rate : 48.0 KHz
Compression mode : Lossy
Stream size : 397 MiB (9%)
Title : 48 KHz, AC3, 6 ch ~448 Kbps - AVO [Живов]
Language : Russian
Default : No
Forced : No
_STATISTICS_WRITING_APP : mkvmerge v7.9.0 ('Birds') 64bit
_STATISTICS_WRITING_DATE_UT : 2015-06-19 07:32:15
_STATISTICS_TAGS : BPS DURATION NUMBER_OF_FRAMES NUMBER_OF_BYTES
DURATION : 02:03:54.656000000
NUMBER_OF_FRAMES : 232333
NUMBER_OF_BYTES : 416340736
Audio #4
ID : 5
Format : AC-3
Format/Info : Audio Coding 3
Mode extension : CM (complete main)
Format settings, Endianness : Big
Codec ID : A_AC3
Duration : 2h 4mn
Bit rate mode : Constant
Bit rate : 448 Kbps
Channel(s) : 6 channels
Channel positions : Front: L C R, Side: L R, LFE
Sampling rate : 48.0 KHz
Compression mode : Lossy
Stream size : 397 MiB (9%)
Title : 48 KHz, AC3, 6 ch ~448 Kbps - AVO [Либергал]
Language : Russian
Default : No
Forced : No
_STATISTICS_WRITING_APP : mkvmerge v7.9.0 ('Birds') 64bit
_STATISTICS_WRITING_DATE_UT : 2015-06-19 07:32:15
_STATISTICS_TAGS : BPS DURATION NUMBER_OF_FRAMES NUMBER_OF_BYTES
DURATION : 02:03:54.624000000
NUMBER_OF_FRAMES : 232332
NUMBER_OF_BYTES : 416338944
Audio #5
ID : 6
Format : AC-3
Format/Info : Audio Coding 3
Mode extension : CM (complete main)
Format settings, Endianness : Big
Codec ID : A_AC3
Duration : 2h 4mn
Bit rate mode : Constant
Bit rate : 448 Kbps
Channel(s) : 6 channels
Channel positions : Front: L C R, Side: L R, LFE
Sampling rate : 48.0 KHz
Compression mode : Lossy
Delay relative to video : -5ms
Stream size : 397 MiB (9%)
Title : 48 KHz, AC3, 6 ch ~448 Kbps - Original
Language : English
Default : No
Forced : No
_STATISTICS_WRITING_APP : mkvmerge v7.9.0 ('Birds') 64bit
_STATISTICS_WRITING_DATE_UT : 2015-06-19 07:32:15
_STATISTICS_TAGS : BPS DURATION NUMBER_OF_FRAMES NUMBER_OF_BYTES
DURATION : 02:03:54.656000000
NUMBER_OF_FRAMES : 232333
NUMBER_OF_BYTES : 416340736




   Похожие торренты   Торрент   Размер 
В этой теме нет новых непрочитанных сообщений. Челюсти / Jaws (1975) BDRip-AVC | P

52 | 2

1.45 ГБ

В этой теме нет новых непрочитанных сообщений. Челюсти / Jaws (1975) BDRip-AVC

14 | 4

4.37 ГБ

В этой теме нет новых непрочитанных сообщений. Челюсти / Jaws (1975) BDRip от HQ-ViDEO

92 | 1

2.18 ГБ

В этой теме нет новых непрочитанных сообщений. Челюсти / Jaws (1975) BDRip 1080p от BT-Club

7 | 4

14.25 ГБ

В этой теме нет новых непрочитанных сообщений. Челюсти / Jaws (1975) BDRip 720p от Leonardo and Scarabey | P | A

78 | 25

6.32 ГБ

В этой теме нет новых непрочитанных сообщений. Челюсти: Квадрология / Jaws: Quadrilogy (1975-1987) BDRip-AVC | P, A

6 | 1

8.73 ГБ

В этой теме нет новых непрочитанных сообщений. Челюсти / Jaws (1975) HDRip от Scarabey | Р

45 | 17

1.45 ГБ




Вы не можете начинать темы
Вы не можете отвечать на сообщения
Вы не можете редактировать свои сообщения
Вы не можете удалять свои сообщения
Вы не можете добавлять вложения

Перейти:  
 Вход
ppkBB3cker v.2 © 2008-2014 @ PPK
[ Time : 0.033s | 16 Queries | GZIP : Off ]

cron