img image001 image001 image001 image001 image001 image001 image001 image001 image001 image001 image001 image001 image001 image001 image001 image001

Planets Sun Sun Sun
Статистика раздачи
Автор: Nickolas3434 | Размер: 4.37 ГБ | Добавлен: 29 май 2015
Раздают: 156    Качают: 20
Скачать торрент
Скачать торрент
Описание торрента

СообщениеДобавлено: 29 май 2015 


Три орешка для Золушки / Tri orísky pro Popelku / Three Wishes for Cinderella (1973) BDRip 720p
Релиз от HQ-ViDEO

Информация о фильме
Название: Три орешка для Золушки
Оригинальное название: Tri orísky pro Popelku / Three Wishes for Cinderella
Год выхода: 1973
Жанр: фэнтези, драма, мелодрама, приключения, семейный
Режиссер: Вацлав Ворличек /Václav Vorlícek/
В ролях: Либуше Шафранкова /Libuse Safránková/, Павел Травничек /Pavel Trávnícek/, Карола Браунбок /Carola Braunbock/, Рольф Хоппе /Rolf Hoppe/, Карин Леш /Karin Lesch/, Дана Главачова /Dana Hlavácová/, Ян Либичек /Jan Libícek/, Витезслав Яндак /Vítezslav Jandák/, Ярослав Дрбоглав /Jaroslav Drbohlav/, Владимир Меншик /Vladimír Mensík/...
О фильме:
Мачеха Золушки всеми силами хочет выдать свою глупую и злую родную дочь замуж за принца. Но тому совсем не хочется жениться, он ссорится с отцом и собирается покинуть дворец, но… в последний момент он влюбляется в очаровательную незнакомку в маске, которая быстро исчезает. Принц и не догадывается, что эта прекрасная девушка, ловкий стрелок, которого он встретил в лесу и озорная девчонка — одно и то же лицо. Все эти превращения оказались возможными благодаря волшебным орешкам, в одном из которых находился и свадебный подарок для Золушки.

Страна: Чехословакия, Германия (ГДР)
Продолжительность: 01:22:53
Перевод: Русский профессиональный, многоголосый
Файл
Кодек: MKV, H.264
Качество: BDRip 720p (Source: Blu-ray Disc)
Видео: 7211 kbps; 0.313 bit/pixel; 1280 x 720; 16:9; 25 fps
Звук: AC3 Dolby Digital; 192.00 kbps, 2 Ch - MVO
Субтитры: Русские, Английские.
Размер: 4.37 GB
SAMPLE / скачать с Яндекс Диск
General
Complete name : Tri.Oreshka.Dlya.Zolushki.1973.RUS.BDRip.720p.h264.AC3.-HQ-ViDEO.mkv
Format : Matroska
File size : 4.37 GiB
Duration : 1h 22mn
Overall bit rate : 7 553 Kbps
Movie name : Tri orísky pro Popelku / Three Wishes for Cinderella (1973)
Encoded date : UTC 2010-12-30 12:50:46
Writing application : mkvmerge v3.3.0 ('Language') built on Mar 24 2010 14:59:24
Writing library : libebml v0.8.0 + libmatroska v0.9.0
Video
ID : 1
Format : AVC
Format/Info : Advanced Video Codec
Format profile : High@L4.1
Format settings, CABAC : Yes
Format settings, ReFrames : 6 frames
Muxing mode : Container profile=Unknown@4.1
Codec ID : V_MPEG4/ISO/AVC
Duration : 1h 22mn
Bit rate : 7 211 Kbps
Width : 1 280 pixels
Height : 720 pixels
Display aspect ratio : 16:9
Frame rate : 25.000 fps
Resolution : 8 bits
Colorimetry : 4:2:0
Scan type : Progressive
Bits/(Pixel*Frame) : 0.313
Stream size : 4.18 GiB (95%)
Title : Encoded by GYN
Audio
ID : 2
Format : AC-3
Format/Info : Audio Coding 3
Format profile : Dolby Digital
Codec ID : A_AC3
Duration : 1h 22mn
Bit rate mode : Constant
Bit rate : 192 Kbps
Channel(s) : 2 channels
Channel positions : L R
Sampling rate : 48.0 KHz
Stream size : 114 MiB (3%)
Title : MVO
Language : Russian
Text #1
ID : 3
Format : UTF-8
Codec ID : S_TEXT/UTF8
Codec ID/Info : UTF-8 Plain Text
Language : Russian
Text #2
ID : 4
Format : UTF-8
Codec ID : S_TEXT/UTF8
Codec ID/Info : UTF-8 Plain Text
Language : English





Релиз от: HQ-ViDEO
Автор рипа: GYN



   Похожие торренты   Торрент   Размер 
В этой теме нет новых непрочитанных сообщений. Три орешка для Золушки / Tri orisky pro Popelku (1973) BDRip

786 | 74

1.37 ГБ

В этой теме нет новых непрочитанных сообщений. Три орешка для Золушки / Tri orisky pro Popelku (1973) Blu-ray 1080i

117 | 14

36.33 ГБ

В этой теме нет новых непрочитанных сообщений. Три орешка для Золушки / Tri orisky pro Popelku / Three Wishes for Cinderella (1973) HDRip от Шкипер

256 | 9

744.04 МБ

В этой теме нет новых непрочитанных сообщений. Ловушка для Золушки / Trap for Cinderella (2013) BDRip 720p | iTunes

84 | 9

4.64 ГБ

В этой теме нет новых непрочитанных сообщений. Пугало / Scarecrow (1973) BDRip от HQ-ViDEO

14 | 0

1.45 ГБ

В этой теме нет новых непрочитанных сообщений. Мотылек / Papillon (1973) BDRip-AVC от HQ-ViDEO | P

44 | 4

2.91 ГБ

В этой теме нет новых непрочитанных сообщений. День Шакала / The Day of the Jackal (1973) BDRip от HQ-ViDEO | P

9 | 2

2.18 ГБ




Вы не можете начинать темы
Вы не можете отвечать на сообщения
Вы не можете редактировать свои сообщения
Вы не можете удалять свои сообщения
Вы не можете добавлять вложения

Перейти:  
 Вход
ppkBB3cker v.2 © 2008-2014 @ PPK
[ Time : 0.161s | 16 Queries | GZIP : Off ]

cron