img image001 image001 image001 image001 image001 image001 image001 image001 image001 image001 image001 image001 image001 image001 image001 image001

Planets Sun Sun Sun
Статистика раздачи
Автор: Nickolas3434 | Размер: 7.03 ГБ | Добавлен: 12 апр 2015
Раздают: 87    Качают: 12
Скачать торрент
Скачать торрент
Описание торрента

СообщениеДобавлено: 12 апр 2015 

Информация о фильме
Название: Темный город
Оригинальное название: Dark City
Год выхода: 1998
Жанр: Фантастика, триллер, детектив, антиутопия
Режиссер: Алекс Пройас
В ролях: Руфус Сьюэлл, Уильям Хёрт, Кифер Сазерленд, Дженнифер Коннелли, Ричард О`Брайэн, Иэн Ричардсон, Брюс Спенс, Колин Фрилз, Джон Блузал, Митчел Бутел, Мелисса Джордж, Фрэнк Галлахер, Ричи Сингер, Джастин Монжо, Николас Белл, Сатиа Гумберт, Ноа Гумберт, Фредерик Мираглиотта, Питер Соммерфельд, Тимоти Джонс, Жанетт Кронин, Пол Ливингстон, Майкл Лэйк, Дэвид Уэнэм, Алан Чинис, Билл Хайфилд, Терри Бейдер, Розмари Трэйнор, Эдвард Грант, Морин О`Шонесси, Доби Опарей, Маркус Джонсон
О фильме:
Джон Мердок просыпается в незнакомом отеле и понимает, что потерял память. Вскоре он узнает, что обвинен в серии жестоких загадочных убийств. Пытаясь воссоздать свое прошлое, он сталкивается с группой существ, известных как "чужие" - представителями высокоразвитой инопланетной цивилизации, обладающими способностью изменять физическую реальность усилием воли. Их расса выраждается, и пытясь выжить они проводят эксперимент с людьми нашей планеты. В открытом космосе создан темный город, где никогда не светит солнце. Чужие пытаются завладеть временем, они постоянно меняют облик этого города, в котором никогда не светит солнце, а также и самих его жителей. Мердоку нужно найти способ остановить их и уничтожить... Примечания: Автор "Ворона" использовал массу впечатляющих визуальных спецэффектов, чтобы создать жутковатую, мрачную атмосферу города.

Страна: США
Студия: Австралия, New Line Cinema, Mystery Clock Cinema
Продолжительность: 01:51:43
Перевод: Профессиональный многоголосый, авторский
Файл
Кодек: x264
Качество: BDRip 1080p
Видео: MPEG-4 AVC, 6000 Кбит/с, 1920х812, 23.976 кадр/с
Звук:
Аудио #1: Русский (AC3, 6 ch, 640 Кбит/с) / Профессиональный многоголосый (Киномания)
Аудио #2: Русский (AC3, 6 ch, 640 Кбит/с) / Авторский одноголосый (Юрий Живов)
Аудио #3: Русский (AC3, 6 ch, 640 Кбит/с) / Авторский одноголосый (Юрий Сербин)
Аудио #4: Украинский (AC3, 6 ch, 448 Кбит/с) / Профессиональный многоголосый (ICTV)
Аудио #5: Английский (AC3, 6 ch, 640 Кбит/с)
Субтитры: Русские (2 вида), английские (Full, SDH)
Семпл
• За исходник BD-Remux спасибо: HDClub - Прагматик
• Украинская дорожка от театральной версии, местами отсутствует перевод.
• Сохранены и подписаны оригинальные чаптеры как на Blu-ray
Сатурн, 1999 год
Победитель (1):
- Лучший научно-фантастический фильм
Номинации (5):
- Лучший режиссер (Алекс Пройас)
- Лучшие костюмы
- Лучшие спецэффекты
- Лучший сценарий
- Лучший грим
raw [info]: 1920x812p 1:1 @ 24000/1001 fps (cfr)
x264 [info]: using SAR=1/1
x264 [info]: using cpu capabilities: MMX2 SSE2Fast SSSE3 SSE4.2 AVX AVX2 FMA3 LZCNT BMI2
x264 [info]: profile High, level 4.1
x264 [info]: frame I:1644 Avg QP:13.80 size:139171
x264 [info]: frame P:42112 Avg QP:16.31 size: 61085
x264 [info]: frame B:116970 Avg QP:18.66 size: 19018
x264 [info]: consecutive B-frames: 3.7% 5.5% 12.8% 35.9% 18.2% 19.9% 2.0% 1.1% 0.4% 0.3% 0.1%
x264 [info]: mb I I16..4: 6.4% 82.8% 10.8%
x264 [info]: mb P I16..4: 2.4% 19.2% 0.7% P16..4: 29.5% 33.4% 8.0% 0.8% 0.0% skip: 5.7%
x264 [info]: mb B I16..4: 0.4% 1.4% 0.1% B16..8: 38.0% 18.3% 2.1% direct: 5.2% skip:34.4% L0:44.4% L1:46.2% BI: 9.4%
x264 [info]: 8x8 transform intra:83.5% inter:58.5%
x264 [info]: direct mvs spatial:99.3% temporal:0.7%
x264 [info]: coded y,uvDC,uvAC intra: 81.4% 76.6% 51.9% inter: 20.0% 19.1% 6.8%
x264 [info]: i16 v,h,dc,p: 54% 11% 6% 29%
x264 [info]: i8 v,h,dc,ddl,ddr,vr,hd,vl,hu: 9% 9% 18% 9% 10% 11% 10% 11% 13%
x264 [info]: i4 v,h,dc,ddl,ddr,vr,hd,vl,hu: 16% 8% 14% 8% 12% 12% 11% 9% 10%
x264 [info]: i8c dc,h,v,p: 35% 30% 21% 14%
x264 [info]: Weighted P-Frames: Y:15.7% UV:11.6%
x264 [info]: ref P L0: 47.9% 4.3% 24.6% 10.7% 9.7% 2.4% 0.4%
x264 [info]: ref B L0: 75.1% 17.0% 5.8% 2.1%
x264 [info]: ref B L1: 93.6% 6.4%
x264 [info]: kb/s:5997.68
encoded 160726 frames, 1.56 fps, 5997.68 kb/s
General
Unique ID : 228821815933030467031761915387341216926 (0xAC257A8D9EB44A208E846D9E945C9C9E)
Complete name : Dark.City.1998.BDRip.1080p.MediaClub.mkv
Format : Matroska
Format version : Version 4 / Version 2
File size : 7.03 GiB
Duration : 1h 51mn
Overall bit rate : 9 009 Kbps
Movie name : release MediaClub - MINION
Encoded date : UTC 2015-02-16 14:50:38
Writing application : mkvmerge v7.5.0 ('Glass Culture') 64bit built on Jan 4 2015 16:48:44
Writing library : libebml v1.3.1 + libmatroska v1.4.2
DURATION : 01:49:53.629000000
NUMBER_OF_FRAMES : 1280
NUMBER_OF_BYTES : 37208
_STATISTICS_WRITING_APP : mkvmerge v7.5.0 ('Glass Culture') 64bit built on Jan 4 2015 16:48:44
_STATISTICS_WRITING_DATE_UTC : 2015-02-16 14:50:38
_STATISTICS_TAGS : BPS DURATION NUMBER_OF_FRAMES NUMBER_OF_BYTES
Video
ID : 1
Format : AVC
Format/Info : Advanced Video Codec
Format profile : High@L4.1
Format settings, CABAC : Yes
Format settings, ReFrames : 5 frames
Codec ID : V_MPEG4/ISO/AVC
Duration : 1h 51mn
Bit rate : 6 000 Kbps
Width : 1 920 pixels
Height : 812 pixels
Display aspect ratio : 2.35:1
Frame rate mode : Constant
Frame rate : 23.976 fps
Color space : YUV
Chroma subsampling : 4:2:0
Bit depth : 8 bits
Scan type : Progressive
Bits/(Pixel*Frame) : 0.161
Stream size : 4.54 GiB (65%)
Title : Dark City 1998 BDRip 1080p [MediaClub - MINION]
Writing library : x264 core 142 r2431 ac76440
Encoding settings : cabac=1 / ref=5 / deblock=1:-3:-3 / analyse=0x3:0x133 / me=esa / subme=11 / psy=1 / psy_rd=1.00:0.10 / mixed_ref=1 / me_range=48 / chroma_me=1 / trellis=2 / 8x8dct=1 / cqm=0 / deadzone=21,11 / fast_pskip=0 / chroma_qp_offset=-3 / threads=6 / lookahead_threads=1 / sliced_threads=0 / nr=0 / decimate=0 / interlaced=0 / bluray_compat=0 / constrained_intra=0 / bframes=10 / b_pyramid=2 / b_adapt=2 / b_bias=0 / direct=3 / weightb=1 / open_gop=0 / weightp=2 / keyint=240 / keyint_min=23 / scenecut=40 / intra_refresh=0 / rc=2pass / mbtree=0 / bitrate=6000 / ratetol=1.0 / qcomp=0.60 / qpmin=10 / qpmax=51 / qpstep=4 / cplxblur=20.0 / qblur=0.5 / ip_ratio=1.40 / pb_ratio=1.30 / aq=1:1.00
Language : English
Default : Yes
Forced : No
DURATION : 01:51:43.614000000
NUMBER_OF_FRAMES : 160726
NUMBER_OF_BYTES : 5025767352
_STATISTICS_WRITING_APP : mkvmerge v7.5.0 ('Glass Culture') 64bit built on Jan 4 2015 16:48:44
_STATISTICS_WRITING_DATE_UTC : 2015-02-16 14:50:38
_STATISTICS_TAGS : BPS DURATION NUMBER_OF_FRAMES NUMBER_OF_BYTES
Audio #1
ID : 2
Format : AC-3
Format/Info : Audio Coding 3
Mode extension : CM (complete main)
Format settings, Endianness : Big
Codec ID : A_AC3
Duration : 1h 51mn
Bit rate mode : Constant
Bit rate : 640 Kbps
Channel(s) : 6 channels
Channel positions : Front: L C R, Side: L R, LFE
Sampling rate : 48.0 KHz
Bit depth : 16 bits
Compression mode : Lossy
Stream size : 511 MiB (7%)
Title : MVO - Киномания
Language : Russian
Default : Yes
Forced : No
Audio #2
ID : 3
Format : AC-3
Format/Info : Audio Coding 3
Mode extension : CM (complete main)
Format settings, Endianness : Big
Codec ID : A_AC3
Duration : 1h 51mn
Bit rate mode : Constant
Bit rate : 640 Kbps
Channel(s) : 6 channels
Channel positions : Front: L C R, Side: L R, LFE
Sampling rate : 48.0 KHz
Bit depth : 16 bits
Compression mode : Lossy
Stream size : 511 MiB (7%)
Title : AVO - Юрий Живов
Language : Russian
Default : No
Forced : No
Audio #3
ID : 4
Format : AC-3
Format/Info : Audio Coding 3
Mode extension : CM (complete main)
Format settings, Endianness : Big
Codec ID : A_AC3
Duration : 1h 51mn
Bit rate mode : Constant
Bit rate : 640 Kbps
Channel(s) : 6 channels
Channel positions : Front: L C R, Side: L R, LFE
Sampling rate : 48.0 KHz
Bit depth : 16 bits
Compression mode : Lossy
Stream size : 511 MiB (7%)
Title : AVO - Юрий Сербин
Language : Russian
Default : No
Forced : No
Audio #4
ID : 5
Format : AC-3
Format/Info : Audio Coding 3
Mode extension : CM (complete main)
Format settings, Endianness : Big
Codec ID : A_AC3
Duration : 1h 51mn
Bit rate mode : Constant
Bit rate : 448 Kbps
Channel(s) : 6 channels
Channel positions : Front: L C R, Side: L R, LFE
Sampling rate : 48.0 KHz
Bit depth : 16 bits
Compression mode : Lossy
Stream size : 358 MiB (5%)
Title : MVO - ICTV
Language : Ukrainian
Default : No
Forced : No
Audio #5
ID : 6
Format : AC-3
Format/Info : Audio Coding 3
Mode extension : CM (complete main)
Format settings, Endianness : Big
Codec ID : A_AC3
Duration : 1h 51mn
Bit rate mode : Constant
Bit rate : 640 Kbps
Channel(s) : 6 channels
Channel positions : Front: L C R, Side: L R, LFE
Sampling rate : 48.0 KHz
Bit depth : 16 bits
Compression mode : Lossy
Stream size : 511 MiB (7%)
Language : English
Default : No
Forced : No
Text #1
ID : 7
Format : UTF-8
Codec ID : S_TEXT/UTF8
Codec ID/Info : UTF-8 Plain Text
Title : Full - Киномания
Language : Russian
Default : No
Forced : No
Text #2
ID : 8
Format : UTF-8
Codec ID : S_TEXT/UTF8
Codec ID/Info : UTF-8 Plain Text
Title : Full
Language : Russian
Default : No
Forced : No
Text #3
ID : 9
Format : UTF-8
Codec ID : S_TEXT/UTF8
Codec ID/Info : UTF-8 Plain Text
Title : Full
Language : English
Default : No
Forced : No
Text #4
ID : 10
Format : UTF-8
Codec ID : S_TEXT/UTF8
Codec ID/Info : UTF-8 Plain Text
Title : Full SDH
Language : English
Default : No
Forced : No
Menu
00:00:00.000 : en:The Stranger
00:02:00.077 : en:John Murdoch
00:07:20.021 : en:Dr. Schreber's Office
00:12:09.519 : en:Automat
00:19:22.286 : en:He Can Tune!
00:23:00.751 : en:Who Am I?
00:27:40.864 : en:Thinking in Circles
00:34:35.447 : en:Tuning Begins
00:48:26.652 : en:Imprinted Memories
00:57:14.179 : en:Search for Murdoch
01:05:31.677 : en:Tuning Time Again
01:11:08.720 : en:Do You Remember?
01:16:27.872 : en:"Sleep"
01:19:31.265 : en:Dark Secrets
01:29:16.809 : en:Final Imprint
01:40:04.497 : en:To Shell Beach
01:45:08.301 : en:End Credits
01:51:43.488 : en:The End

Релиз от: |



   Похожие торренты   Торрент   Размер 
В этой теме нет новых непрочитанных сообщений. Темный город / Dark City (1998) HDRip | Режиссерская версия / Director's Cut | P

113 | 12

747.23 МБ

В этой теме нет новых непрочитанных сообщений. Темный город / Dark City (1998) BDRip-AVC от MediaClub | P, A | Театральная версия

57 | 7

2.55 ГБ

В этой теме нет новых непрочитанных сообщений. Темный город / Dark City (1998) BDRip-AVC от MediaClub | P, A | Режиссерская версия

77 | 9

3.31 ГБ

В этой теме нет новых непрочитанных сообщений. Темный город / Город тьмы / Dark City (1998) BDRip-AVC | 60fps | Режиссерская версия

370 | 12

3.82 ГБ

В этой теме нет новых непрочитанных сообщений. Темный город / Dark City (1998) BDRip-AVC | iPad | P,P1 | Театральная версия

50 | 14

1.59 ГБ

В этой теме нет новых непрочитанных сообщений. Темный город / Dark City (1998) BDRip-AVC | iPad | P,P1 | Режиссерская версия

52 | 33

1.73 ГБ

В этой теме нет новых непрочитанных сообщений. Темный город / Dark City (1998) BDRip 720p | Театральная версия / Theatrical cut

31 | 3

4.63 ГБ




Вы не можете начинать темы
Вы не можете отвечать на сообщения
Вы не можете редактировать свои сообщения
Вы не можете удалять свои сообщения
Вы не можете добавлять вложения

Перейти:  
 Вход
ppkBB3cker v.2 © 2008-2014 @ PPK
[ Time : 0.036s | 16 Queries | GZIP : Off ]

cron