img image001 image001 image001 image001 image001 image001 image001 image001 image001 image001 image001 image001 image001 image001 image001 image001

Planets Sun Sun Sun
Статистика раздачи
Автор: Nickolas3434 | Размер: 5.72 ГБ | Добавлен: 23 мар 2015
Раздают: 73    Качают: 9
Скачать торрент
Скачать торрент
Описание торрента

СообщениеДобавлено: 23 мар 2015 


Информация о фильме
Название: Искатель воды
Оригинальное название: The Water Diviner
Год выхода: 2014
Жанр: Исторический
Режиссер: Расселл Кроу
В ролях: Расселл Кроу, Джай Кортни, Ольга Куриленко, Изабель Лукас, Дэймон Херриман, Жаклин МакКензи, Джем Йылмаз, Йылмаз Эрдоган, Меган Гэйл, Райан Корр
О фильме:Действие фильма разворачивается в 1919 году. Это история об австралийце, который отправляется на полуостров Галлиполи, где во время Первой мировой войны проходила ожесточенная битва, чтобы разыскать тела своих погибших сыновей. И неожиданно для себя он обретает надежду там, где и не мыслил ее найти.

Страна: Австралия, Турция, США
Студия: Fear of God Films, Hopscotch Features
Продолжительность: 01:51:03
Перевод: Любительский двухголосый (Студия Пиратского Дубляжа)
Файл
Кодек: MPEG-2
Качество: DVD-9
Видео: MPEG2, NTSC 16:9 (720x480) VBR, 23,976 кадра/сек
Звук: Русский DD 2.0 (192 Kbps), Английский DD 5.1 (384 Kbps)
Title:
Size: 5.72 Gb ( 6 001 968 KBytes ) - DVD-9
Enabled regions: 1, 2, 3, 4, 5, 6, 7, 8
VTS_01 :
Play Length: 01:51:03
Video: NTSC 16:9 (720x480) VBR, Auto Pan&Scan
Audio:
Russian (Dolby AC3, 2 ch)
English (Dolby AC3, 6 ch)
Menu Video:
NTSC 4:3 (704x480) VBR
Menu English Language Unit :
Root Menu
Общее
Полное имя : D:ААА2Искатель водыVIDEO_TSVTS_01_1.VOB
Формат : MPEG-PS
Размер файла : 1000 Мбайт
Продолжительность : 19 м.
Режим общего битрейта : Переменный
Общий поток : 7324 Кбит/сек
Видео
Идентификатор : 224 (0xE0)
Формат : MPEG Video
Версия формата : Version 2
Профиль формата : Main@Main
Параметр BVOP формата : Да
Параметр матрицы формата : По умолчанию
Параметр GOP формата : M=3, N=12
Продолжительность : 19 м.
Вид битрейта : Переменный
Битрейт : 6602 Кбит/сек
Максимальный битрейт : 8832 Кбит/сек
Ширина : 720 пикселей
Высота : 480 пикселей
Соотношение сторон : 16:9
Частота кадров : 23,976 кадра/сек
Стандарт вещания : NTSC
Цветовое пространство : YUV
Субдискретизация насыщенности : 4:2:0
Битовая глубина : 8 бит
Тип развёртки : Прогрессивная
Порядок развёртки : 2:3 Pulldown
Метод сжатия : С потерями
Бит/(Пиксели*Кадры) : 0.797
TimeCode_FirstFrame : 00:00:00;00
TimeCode_Source : Group of pictures header
Размер потока : 902 Мбайт (90%)
Аудио #1
Идентификатор : 189 (0xBD)-128 (0x80)
Формат : AC-3
Формат/Информация : Audio Coding 3
Расширение режима : CM (complete main)
Параметр Endianness формата : Big
Режим смешивания : DVD-Video
Продолжительность : 19 м.
Вид битрейта : Постоянный
Битрейт : 192 Кбит/сек
Каналы : 2 канала
Расположение каналов : Front: L R
Частота : 48,0 КГц
Битовая глубина : 16 бит
Метод сжатия : С потерями
Размер потока : 26,2 Мбайт (3%)
Аудио #2
Идентификатор : 189 (0xBD)-129 (0x81)
Формат : AC-3
Формат/Информация : Audio Coding 3
Расширение режима : CM (complete main)
Параметр Endianness формата : Big
Режим смешивания : DVD-Video
Продолжительность : 19 м.
Вид битрейта : Постоянный
Битрейт : 384 Кбит/сек
Каналы : 6 каналов
Расположение каналов : Front: L C R, Side: L R, LFE
Частота : 48,0 КГц
Битовая глубина : 16 бит
Метод сжатия : С потерями
Размер потока : 52,5 Мбайт (5%)
Меню

Релиз:



   Похожие торренты   Торрент   Размер 
В этой теме нет новых непрочитанных сообщений. Искатель воды / The Water Diviner (2014) HDRip | L2

155 | 20

702.14 МБ

В этой теме нет новых непрочитанных сообщений. Искатель воды / The Water Diviner (2014) HDRip | L2

931 | 45

1.37 ГБ

В этой теме нет новых непрочитанных сообщений. Искатель воды / The Water Diviner (2014) HDRip | L2

444 | 16

2.05 ГБ

В этой теме нет новых непрочитанных сообщений. Искатель воды / The Water Diviner (2014) BDRip | iTunes | A

85 | 14

2.17 ГБ

В этой теме нет новых непрочитанных сообщений. Искатель воды / The Water Diviner (2014) BDRip 720p | L2

861 | 44

4.84 ГБ

В этой теме нет новых непрочитанных сообщений. Искатель воды / The Water Diviner (2014) BDRip-AVC | iTunes

118 | 6

3.11 ГБ

В этой теме нет новых непрочитанных сообщений. Искатель воды / The Water Diviner (2014) HDRip | КПК | iTunes

41 | 1

399.3 МБ




Вы не можете начинать темы
Вы не можете отвечать на сообщения
Вы не можете редактировать свои сообщения
Вы не можете удалять свои сообщения
Вы не можете добавлять вложения

Перейти:  
 Вход
ppkBB3cker v.2 © 2008-2014 @ PPK
[ Time : 0.020s | 16 Queries | GZIP : Off ]

cron