img image001 image001 image001 image001 image001 image001 image001 image001 image001 image001 image001 image001 image001 image001 image001 image001

Planets Sun Sun Sun
Статистика раздачи
Автор: Nickolas3434 | Размер: 6.34 ГБ | Добавлен: 27 фев 2015
Раздают: 127    Качают: 11
Скачать торрент
Скачать торрент
Описание торрента

СообщениеДобавлено: 27 фев 2015 

Информация о фильме
Название: Человек с Земли
Оригинальное название: The Man from Earth
Год выхода: 2007
Жанр: Фантастика, драма
Режиссер: Ричард Шенкман
В ролях: Дэвид Ли Смит, Тони Тодд, Джон Биллингсли, Эллен Кроуфорд, Анника Петерсон, Уильям Кэтт, Алексис Торпе, Ричард Рили, Стивен Литтлс, Чейз Страг
О фильме: Импровизированная прощальная вечеринка профессора стала загадкой после того, как учёный рассказывает своим коллегам, что он бессмертный, который ходит по земле уже 14000 лет...

Страна: США / Falling Sky Entertainment
Продолжительность: 01:27:08
Перевод: Профессиональный (многоголосый, закадровый) - Кубик в Кубе, Омикрон |
Авторский (одноголосый, закадровый) - А.Дольский

Файл
Качество: BDRip 720p
Формат: MKV
Видео: MPEG4/AVC, 8671 Кбит/сек, 1272х720 (16:9), 23.976 кадра/сек
Аудио 1: AC3, 2 канала, 256 Кбит/сек | Русский - Кубик в Кубе
Аудио 2: AC3, 2 канала, 192 Кбит/сек | Русский - А.Дольский
Аудио 3: AC3, 6 каналов, 448 Кбит/сек | Украинский - Омикрон
Аудио 4: AC3, 6 каналов, 640 Кбит/сек | Английский
Субтитры: Русские, английские
Навигация по главам: Есть
Общее
Уникальный идентификатор : 173224669993163106182856251085957414488 (0x8251DB9FA380BAFFBE6FA6C15360BE58)
Полное имя : The Man from Earth. (2007) BDRip 720p.mkv
Формат : Matroska
Версия формата : Version 2
Размер файла : 6,34 Гбайт
Продолжительность : 1 ч. 27 м.
Общий поток : 10,4 Мбит/сек
Название фильма : The Man from Earth. 2007
Дата кодирования : UTC 2015-02-25 20:06:37
Программа кодирования : mkvmerge v5.8.0 ('No Sleep / Pillow') built on Sep 2 2012 15:37:04
Библиотека кодирования : libebml v1.2.3 + libmatroska v1.3.0
Видео
Идентификатор : 1
Формат : AVC
Формат/Информация : Advanced Video Codec
Профиль формата : High@L4.1
Параметр CABAC формата : Да
Параметр ReFrames формата : 8 кадров
Идентификатор кодека : V_MPEG4/ISO/AVC
Продолжительность : 1 ч. 27 м.
Битрейт : 8671 Кбит/сек
Ширина : 1272 пикселя
Высота : 720 пикселей
Соотношение сторон : 16:9
Режим частоты кадров : Постоянный
Частота кадров : 23,976 кадра/сек
Цветовое пространство : YUV
Субдискретизация насыщенности : 4:2:0
Битовая глубина : 8 бит
Тип развёртки : Прогрессивная
Бит/(Пиксели*Кадры) : 0.395
Размер потока : 5,28 Гбайт (83%)
Заголовок : E76
Библиотека кодирования : x264 core 142 r2431kMod ac76440
Настройки программы : cabac=1 / ref=8 / deblock=1:-3:-3 / analyse=0x3:0x113 / me=umh / subme=10 / psy=1 / fade_compensate=0.00 / psy_rd=1.00:0.00 / mixed_ref=1 / me_range=32 / chroma_me=1 / trellis=2 / 8x8dct=1 / cqm=0 / deadzone=21,11 / fast_pskip=1 / chroma_qp_offset=-2 / threads=6 / lookahead_threads=1 / sliced_threads=0 / nr=0 / decimate=1 / interlaced=0 / bluray_compat=0 / constrained_intra=0 / fgo=0 / bframes=12 / b_pyramid=2 / b_adapt=2 / b_bias=0 / direct=1 / weightb=1 / open_gop=0 / weightp=2 / keyint=240 / keyint_min=23 / scenecut=40 / intra_refresh=0 / rc_lookahead=0 / rc=crf / mbtree=0 / crf=18.0000 / qcomp=0.70 / qpmin=0 / qpmax=69 / qpstep=4 / vbv_maxrate=62500 / vbv_bufsize=78125 / crf_max=0.0 / nal_hrd=none / filler=0 / ip_ratio=1.40 / pb_ratio=1.20 / aq=3:1.00
Язык : English
Default : Да
Forced : Нет
Коэффициенты матрицы : BT.709
Аудио #1
Идентификатор : 2
Формат : AC-3
Формат/Информация : Audio Coding 3
Расширение режима : CM (complete main)
Параметр Endianness формата : Big
Идентификатор кодека : A_AC3
Продолжительность : 1 ч. 27 м.
Вид битрейта : Постоянный
Битрейт : 256 Кбит/сек
Каналы : 2 канала
Расположение каналов : Front: L R
Частота : 48,0 КГц
Битовая глубина : 16 бит
Метод сжатия : С потерями
Размер потока : 160 Мбайт (2%)
Заголовок : P | Кубик в Кубе
Язык : Russian
Default : Да
Forced : Нет
Аудио #2
Идентификатор : 3
Формат : AC-3
Формат/Информация : Audio Coding 3
Расширение режима : CM (complete main)
Параметр Endianness формата : Big
Идентификатор кодека : A_AC3
Продолжительность : 1 ч. 27 м.
Вид битрейта : Постоянный
Битрейт : 192 Кбит/сек
Каналы : 2 канала
Расположение каналов : Front: L R
Частота : 48,0 КГц
Битовая глубина : 16 бит
Метод сжатия : С потерями
Размер потока : 120 Мбайт (2%)
Заголовок : A | А.Дольский
Язык : Russian
Default : Нет
Forced : Нет
Аудио #3
Идентификатор : 4
Формат : AC-3
Формат/Информация : Audio Coding 3
Расширение режима : CM (complete main)
Параметр Endianness формата : Big
Идентификатор кодека : A_AC3
Продолжительность : 1 ч. 27 м.
Вид битрейта : Постоянный
Битрейт : 448 Кбит/сек
Каналы : 6 каналов
Расположение каналов : Front: L C R, Side: L R, LFE
Частота : 48,0 КГц
Битовая глубина : 16 бит
Метод сжатия : С потерями
Размер потока : 279 Мбайт (4%)
Заголовок : P | Омикрон
Язык : Ukrainian
Default : Нет
Forced : Нет
Аудио #4
Идентификатор : 5
Формат : AC-3
Формат/Информация : Audio Coding 3
Расширение режима : CM (complete main)
Параметр Endianness формата : Big
Идентификатор кодека : A_AC3
Продолжительность : 1 ч. 27 м.
Вид битрейта : Постоянный
Битрейт : 640 Кбит/сек
Каналы : 6 каналов
Расположение каналов : Front: L C R, Side: L R, LFE
Частота : 48,0 КГц
Битовая глубина : 16 бит
Метод сжатия : С потерями
Размер потока : 399 Мбайт (6%)
Заголовок : Original
Язык : English
Default : Нет
Forced : Нет
Текст #1
Идентификатор : 6
Формат : UTF-8
Идентификатор кодека : S_TEXT/UTF8
Идентификатор кодека/Информация : UTF-8 Plain Text
Заголовок : Full
Язык : Russian
Default : Нет
Forced : Нет
Текст #2
Идентификатор : 7
Формат : UTF-8
Идентификатор кодека : S_TEXT/UTF8
Идентификатор кодека/Информация : UTF-8 Plain Text
Заголовок : Full
Язык : English
Default : Нет
Forced : Нет
Меню
00:00:00.000 : en:00:00:00.000
00:10:02.602 : en:00:10:02.602
00:20:03.202 : en:00:20:03.202
00:30:03.802 : en:00:30:03.802
00:40:04.402 : en:00:40:04.402
00:50:05.002 : en:00:50:05.002
01:00:05.602 : en:01:00:05.602
01:10:06.202 : en:01:10:06.202
01:20:06.802 : en:01:20:06.802


Релиз от:



   Похожие торренты   Торрент   Размер 
В этой теме нет новых непрочитанных сообщений. Человек с Земли / The Man from Earth (2007) BDRip 720p от Leonardo and Scarabey

836 | 59

3.44 ГБ

В этой теме нет новых непрочитанных сообщений. Человек с Земли / Человек с планеты Земля / The Man from Earth (2007) BDRip от HQCLUB

752 | 40

1.45 ГБ

В этой теме нет новых непрочитанных сообщений. Человек с Земли / The Man from Earth (2007) BDRip-AVC от MediaClub | P, A

289 | 25

2.84 ГБ

В этой теме нет новых непрочитанных сообщений. Человек с Земли / The Man from Earth (2007) BDRip-AVC от MediaClub | P, A

1701 | 225

2.96 ГБ

В этой теме нет новых непрочитанных сообщений. Столпы Земли / The Pillars of the Earth [S01] (2010) BDRip 720p

154 | 34

29.14 ГБ

В этой теме нет новых непрочитанных сообщений. Последний час Земли / Earth's Final Hours (2011) BDRip 720p | P, P2, D

58 | 12

4.88 ГБ

В этой теме нет новых непрочитанных сообщений. Соль Земли / The Salt of the Earth (2014) BDRip 720p | iTunes

840 | 74

4.62 ГБ




Вы не можете начинать темы
Вы не можете отвечать на сообщения
Вы не можете редактировать свои сообщения
Вы не можете удалять свои сообщения
Вы не можете добавлять вложения

Перейти:  
 Вход
ppkBB3cker v.2 © 2008-2014 @ PPK
[ Time : 0.020s | 15 Queries | GZIP : Off ]

cron