img image001 image001 image001 image001 image001 image001 image001 image001 image001 image001 image001 image001 image001 image001 image001 image001

Planets Sun Sun Sun
Статистика раздачи
Автор: Nickolas3434 | Размер: 2.53 ГБ | Добавлен: 03 фев 2015
Раздают: 259    Качают: 12
Скачать торрент
Скачать торрент
Описание торрента

СообщениеДобавлено: 03 фев 2015 

Амазония
| Amazonia |

Информация о фильме
Название: Амазония
Оригинальное название: Amazonia
Год выхода: 2013
Жанр: Документальный, приключения
Режиссер: Тьерри Рагоберт
О фильме:
Невероятно увлекательное путешествие по диким тропическим джунглям Амазонии вместе с капуцином Саи. Выжив в авиакатастрофе, маленькая обезьянка попадает в необычную среду и теперь должна сама заботиться о себе. Ведь новый мир дикой природы полон опасностей и ловушек. Что ее ждет и как она приспособится к жизни в дикой Амазонии?

Страна: Франция, Бразилия
Студия: Biloba, Gullane Filmes, ANCINE/Ministério da Cultura, Fundo Setorial do Audiovisual
Продолжительность: 01:22:40
Перевод: Дублированный
Файл
Кодек: h.264
Качество: WEB-DL 720p
Видео: 3912 Кбит/с, 1280х696, 24.000 кадр/с
Звук: АС3, 6 ch, 384 Кбит/с
Семпл
Полное имя : Amazonia.2013.720p.WEB-DL.Rus.HDCLUB.mkv
Формат : Matroska
Версия формата : Version 2
Размер файла : 2,53 Гбайт
Продолжительность : 1 ч. 22 м.
Общий поток : 4383 Кбит/сек
Дата кодирования : UTC 2015-02-02 15:12:54
Программа кодирования : mkvmerge v3.4.0 ('Rapunzel') built on May 15 2010 09:38:20
Библиотека кодирования : libebml v0.8.0 + libmatroska v0.9.0
Видео
Идентификатор : 1
Формат : AVC
Формат/Информация : Advanced Video Codec
Профиль формата : High@L3.1
Параметр CABAC формата : Нет
Параметр ReFrames формата : 2 кадра
Идентификатор кодека : V_MPEG4/ISO/AVC
Продолжительность : 1 ч. 22 м.
Битрейт : 3912 Кбит/сек
Ширина : 1280 пикселей
Высота : 696 пикселей
Соотношение сторон : 1,85:1
Режим частоты кадров : Постоянный
Частота кадров : 24,000 кадра/сек
Цветовое пространство : YUV
Субдискретизация насыщенности : 4:2:0
Битовая глубина : 8 бит
Тип развёртки : Прогрессивная
Бит/(Пиксели*Кадры) : 0.183
Размер потока : 2,26 Гбайт (89%)
Заголовок : Amazonia (2013) - Release for HDCLUB
Язык : Portuguese
Default : Да
Forced : Нет
Основные цвета : BT.709
Характеристики трансфера : BT.709
Коэффициенты матрицы : BT.709
Аудио
Идентификатор : 2
Формат : AC-3
Формат/Информация : Audio Coding 3
Расширение режима : CM (complete main)
Параметр Endianness формата : Big
Идентификатор кодека : A_AC3
Продолжительность : 1 ч. 22 м.
Вид битрейта : Постоянный
Битрейт : 384 Кбит/сек
Каналы : 6 каналов
Расположение каналов : Front: L C R, Side: L R, LFE
Частота : 48,0 КГц
Битовая глубина : 16 бит
Метод сжатия : С потерями
Размер потока : 227 Мбайт (9%)
Заголовок : AC3 5.1 @ 384 kbps - DUB, iTunes
Язык : Russian
Default : Да
Forced : Нет
Меню
00:00:00.000 : en:1
00:05:16.000 : en:2
00:10:30.000 : en:3
00:15:00.000 : en:4
00:20:15.000 : en:5
00:25:19.000 : en:6
00:29:45.000 : en:7
00:35:52.000 : en:8
00:40:19.000 : en:9
00:44:48.000 : en:10
00:49:57.000 : en:11
00:55:11.000 : en:12
01:00:14.000 : en:13
01:04:46.000 : en:14
01:09:30.000 : en:15
01:14:37.000 : en:16



Релиз от:



   Похожие торренты   Торрент   Размер 
В этой теме нет новых непрочитанных сообщений. Амазония / Amazonia (2013) BDRip 720p

288 | 22

2.74 ГБ

В этой теме нет новых непрочитанных сообщений. Амазония: Инструкция по выживанию / Amazonia (2013) BDRip 720p от NNNB

36 | 9

5.19 ГБ

В этой теме нет новых непрочитанных сообщений. Амазония / Amazonia (2013) BDRip-AVC

260 | 12

1.45 ГБ

В этой теме нет новых непрочитанных сообщений. Амазония / Amazonia (2013) BDRip от Rulya74

68 | 8

1.36 ГБ

В этой теме нет новых непрочитанных сообщений. Амазония: Инструкция по выживанию / Amazonia (2013) BDRip-AVC | D

30 | 6

1.67 ГБ

В этой теме нет новых непрочитанных сообщений. Амазония: Инструкция по выживанию / Amazonia (2013) BDRemux 1080p

5 | 2

16.08 ГБ

В этой теме нет новых непрочитанных сообщений. Амазония: Инструкция по выживанию / Amazonia (2013) BDRip 1080p от NNNB

111 | 17

4.97 ГБ




Вы не можете начинать темы
Вы не можете отвечать на сообщения
Вы не можете редактировать свои сообщения
Вы не можете удалять свои сообщения
Вы не можете добавлять вложения

Перейти:  
 Вход
ppkBB3cker v.2 © 2008-2014 @ PPK
[ Time : 0.023s | 18 Queries | GZIP : Off ]

cron