img image001 image001 image001 image001 image001 image001 image001 image001 image001 image001 image001 image001 image001 image001 image001 image001

Planets Sun Sun Sun
Статистика раздачи
Автор: Nickolas3434 | Размер: 7.39 ГБ | Добавлен: 02 ноя 2014
Раздают: 49    Качают: 7
Скачать торрент
Скачать торрент
Описание торрента

СообщениеДобавлено: 02 ноя 2014 

Информация о фильме
Название: Вкусная дрянь
Оригинальное название: The Stuff
Год выхода: 1985
Жанр: ужасы, фантастика, комедия
Режиссер: Ларри Коэн
В ролях: Майкл Мориарти, Андреа Марковиччи, Гаррет Моррис, Пол Сорвино, Скотт Блум, Дэнни Айелло, Патрик О’Нил, Джеймс Диксон, Александр Скурби, Рассел Найп
О фильме: Зимой на Аляске группа людей находит на снегу некую липкую массу, похожую на сгущёнку. Люди пробуют её — она оказывается очень вкусной. Но эта масса обладает одним интересным свойством — она живая. Но такой её особенности люди не придают особого внимания.
Через некоторое время данный продукт рекомендуют к питанию по всей стране. Людям она приходится по вкусу, они готовы есть её постоянно и заменить ей все свои обычные продукты питания. В стране строят фабрики, которые будут производить новый пищевой продукт.
Далее действие фильма смещается на одну семью. В этом семействе маленький мальчик обращает внимание на особенность массы — она живая и передвигается. Мальчик сообщает о своем наблюдении своим родителям, но они не видят в этом свойстве массы никакой опасности.
Но с этой вкусной дрянью всё оказалось совсем не просто — люди, употребляющие её превращаются в бездушных зомби. Такими же становятся и родители мальчика, обнаружившего опасность, а также его старший брат. А сам мальчик вынужден убежать из дома.

Выпущено: Larco Productions
Продолжительность: 01:26:31
Перевод: Дублированный (Варус Видео) + Авторский (А.Пронин)
Файл
Кодек: x264
Качество: BDRip (источник: Blu-ray Disc)
Видео: 1280x698 (1,85:1), 23.976 fps, 11,6 Mbps
Аудио #1: AC-3, 2 ch, 192 kbps (Дубляж, Варус Видео)
Аудио #2: AC-3, 2 ch, 192 kbps (Одноголосый закадровый, А.Пронин)
Аудио #3: AC-3, 1 ch, 192 kbps (Original)
Субтитры: Английские
Скачать: сэмпл
Скриншоты

Общее
Уникальный идентификатор : 193133838114244082633375298232766334346 (0x914C3965D159B42087A131079262858A)
Полное имя : The.Stuff.1985.BDRip.720p.Rus.Eng.mkv
Формат : Matroska
Версия формата : Version 2
Размер файла : 7,39 Гбайт
Продолжительность : 1 ч. 26 м.
Общий поток : 12,2 Мбит/сек
Название фильма : Вкусная дрянь / The Stuff (1985)
Дата кодирования : UTC 2014-11-02 06:31:49
Программа кодирования : mkvmerge v5.8.0 ('No Sleep / Pillow') built on Sep 2 2012 15:37:04
Библиотека кодирования : libebml v1.2.3 + libmatroska v1.3.0
Видео
Идентификатор : 1
Формат : AVC
Формат/Информация : Advanced Video Codec
Профиль формата : High@L4.1
Параметр CABAC формата : Да
Параметр ReFrames формата : 9 кадров
Идентификатор кодека : V_MPEG4/ISO/AVC
Продолжительность : 1 ч. 26 м.
Битрейт : 11,6 Мбит/сек
Ширина : 1280 пикселей
Высота : 698 пикселей
Соотношение сторон : 1,85:1
Режим частоты кадров : Постоянный
Частота кадров : 23,976 кадра/сек
Цветовое пространство : YUV
Субдискретизация насыщенности : 4:2:0
Битовая глубина : 8 бит
Тип развёртки : Прогрессивная
Бит/(Пиксели*Кадры) : 0.544
Размер потока : 6,89 Гбайт (93%)
Заголовок : Release by AlexKa
Библиотека кодирования : x264 core 142 r2479 dd79a61
Настройки программы : cabac=1 / ref=9 / deblock=1:-3:-3 / analyse=0x3:0x133 / me=umh / subme=11 / psy=1 / psy_rd=1.00:0.10 / mixed_ref=1 / me_range=32 / chroma_me=1 / trellis=2 / 8x8dct=1 / cqm=0 / deadzone=21,11 / fast_pskip=0 / chroma_qp_offset=-3 / threads=12 / lookahead_threads=3 / sliced_threads=0 / nr=0 / decimate=1 / interlaced=0 / bluray_compat=0 / constrained_intra=0 / bframes=13 / b_pyramid=2 / b_adapt=2 / b_bias=0 / direct=3 / weightb=1 / open_gop=0 / weightp=2 / keyint=240 / keyint_min=23 / scenecut=40 / intra_refresh=0 / rc=2pass / mbtree=0 / bitrate=11643 / ratetol=1.0 / qcomp=0.60 / qpmin=0 / qpmax=69 / qpstep=4 / cplxblur=20.0 / qblur=0.5 / ip_ratio=1.40 / pb_ratio=1.30 / aq=1:0.90
Язык : English
Аудио #1
Идентификатор : 2
Формат : AC-3
Формат/Информация : Audio Coding 3
Расширение режима : CM (complete main)
Параметр Endianness формата : Big
Идентификатор кодека : A_AC3
Продолжительность : 1 ч. 26 м.
Вид битрейта : Постоянный
Битрейт : 192 Кбит/сек
Каналы : 2 канала
Расположение каналов : Front: L R
Частота : 48,0 КГц
Битовая глубина : 16 бит
Метод сжатия : С потерями
Размер потока : 119 Мбайт (2%)
Заголовок : Дубляж, Варус Видео
Язык : Russian
Аудио #2
Идентификатор : 3
Формат : AC-3
Формат/Информация : Audio Coding 3
Расширение режима : CM (complete main)
Параметр Endianness формата : Big
Идентификатор кодека : A_AC3
Продолжительность : 1 ч. 26 м.
Вид битрейта : Постоянный
Битрейт : 192 Кбит/сек
Каналы : 2 канала
Расположение каналов : Front: L R
Частота : 48,0 КГц
Битовая глубина : 16 бит
Метод сжатия : С потерями
Размер потока : 119 Мбайт (2%)
Заголовок : Одноголосый закадровый, А.Пронин
Язык : Russian
Аудио #3
Идентификатор : 4
Формат : AC-3
Формат/Информация : Audio Coding 3
Расширение режима : CM (complete main)
Параметр Endianness формата : Big
Идентификатор кодека : A_AC3
Продолжительность : 1 ч. 26 м.
Вид битрейта : Постоянный
Битрейт : 192 Кбит/сек
Каналы : 1 канал
Расположение каналов : Front: C
Частота : 48,0 КГц
Битовая глубина : 16 бит
Метод сжатия : С потерями
Размер потока : 119 Мбайт (2%)
Заголовок : Original
Язык : English
Текст
Идентификатор : 5
Формат : UTF-8
Идентификатор кодека : S_TEXT/UTF8
Идентификатор кодека/Информация : UTF-8 Plain Text
Заголовок : Eng
Язык : English
Меню
00:00:00.000 : :Chapter 01
00:07:58.519 : :Chapter 02
00:15:23.464 : :Chapter 03
00:21:02.719 : :Chapter 04
00:28:20.364 : :Chapter 05
00:34:06.419 : :Chapter 06
00:40:13.244 : :Chapter 07
00:47:55.330 : :Chapter 08
00:56:32.639 : :Chapter 09
01:01:27.642 : :Chapter 10
01:08:49.332 : :Chapter 11
01:19:48.825 : :Chapter 12
01:26:30.685 : :Chapter 13
x264 [info]: frame I:848 Avg QP:19.76 size:167773
x264 [info]: frame P:21357 Avg QP:22.36 size:103224
x264 [info]: frame B:102256 Avg QP:24.58 size: 50936
x264 [info]: consecutive B-frames: 1.2% 0.6% 2.0% 11.7% 13.0% 35.9% 10.4% 8.3% 4.9% 5.1% 2.9% 1.8% 1.5% 0.6%



   Похожие торренты   Торрент   Размер 
В этой теме нет новых непрочитанных сообщений. Вкусная дрянь / The Stuff (1985) BDRip от Torrange | D

18 | 3

743.68 МБ

В этой теме нет новых непрочитанных сообщений. Вкусная дрянь / The Stuff (1985) BDRip от R. G. Jolly Roger | D

98 | 2

1.46 ГБ

В этой теме нет новых непрочитанных сообщений. Вкусная Дрянь / Смертельный Десерт / The Stuff (1985) BDRemux 1080p от MediaClub | D

32 | 22

23.75 ГБ

В этой теме нет новых непрочитанных сообщений. Вкусная жизнь / Delicious [S02] (2017) HDTVRip 720p | ColdFilm

0 | 0

4.8 ГБ

В этой теме нет новых непрочитанных сообщений. Вкусная жизнь / Delicious [02x01 из 04] (2017) HDTVRip 720p | ColdFilm

4 | 1

1.24 ГБ

В этой теме нет новых непрочитанных сообщений. Вкусная жизнь / Delicious [02x01-02 из 04] (2017) HDTVRip 720p | ColdFilm

4 | 1

2.65 ГБ

В этой теме нет новых непрочитанных сообщений. Вкусная жизнь / Delicious [02x01-03 из 04] (2017) HDTVRip 720p | ColdFilm

0 | 0

3.49 ГБ




Вы не можете начинать темы
Вы не можете отвечать на сообщения
Вы не можете редактировать свои сообщения
Вы не можете удалять свои сообщения
Вы не можете добавлять вложения

Перейти:  
 Вход
ppkBB3cker v.2 © 2008-2014 @ PPK
[ Time : 0.040s | 16 Queries | GZIP : Off ]

cron