img image001 image001 image001 image001 image001 image001 image001 image001 image001 image001 image001 image001 image001 image001 image001 image001

Planets Sun Sun Sun
Статистика раздачи
Автор: Nickolas3434 | Размер: 1.76 ГБ | Добавлен: 12 окт 2014
Раздают: 774    Качают: 133
Скачать торрент
Скачать торрент
Описание торрента

СообщениеДобавлено: 12 окт 2014 

Информация о фильме
Название: Снайпер: Наследие
Оригинальное название: Sniper: Legacy
Год выхода: 2014
Жанр: боевик
Режиссер: Дон Майкл Пол / Don Michael Paul
В ролях: Том Беренджер, Чад Коллинз, Деннис Хейсбёрт, Асен Асенов, Василь Энев, Данко Йорданов, Доминик Мафэм, Мерседес Масон, Вун Янг Парк, Райчо Василев
О фильме:
Брендону сообщают, что дезертировавший американский снайпер убил его отца. Собрав небольшой отряд, он решает выследить убийцу. В процессе поисков он узнает, что его отец не умер, после чего Брендон начинает понимать, что старшие офицеры использовали его в качестве приманки…

Страна: США
Студия: BUFO
Продолжительность: 01:37:59:880 (140976)
Перевод: Профессиональный (многоголосый, закадровый) + Оригинал
Файл
Кодек: х264
Качество: DVDRip-AVC
Видео: 720x404 (16:9), 23,976 fps, x264 ~ 1675 kbps avg, 0.240 bit/pixel
Аудио:1 48,0 kHz, Audio Coding 3, 2 ch, ~448 kbps avg Русский
Аудио:2 48,0 kHz, Audio Coding 3, 2 ch, ~448 kbps avg Английский
Общее
Уникальный идентификатор : 245054845739218720224006818195249543185 (0xB85BD8B704A6A51B910B419F755BB811)
Полное имя : D:ВидеоСнайпер. Наследие. 2014. DVDRip-AVC by Vovan366 WazZzuP & ExKinoRay.mkv
Формат : Matroska
Версия формата : Version 4 / Version 2
Размер файла : 1,76 Гбайт
Продолжительность : 1 ч. 37 м.
Общий поток : 2572 Кбит/сек
Название фильма : Снайпер. Наследие. 2014. DVDRip-AVC by Vovan366 ( ExKinoRay)
Дата кодирования : UTC 2014-10-11 17:33:53
Программа кодирования : mkvmerge v7.1.0 ('Good Love') 64bit built on Jul 27 2014 13:06:55
Библиотека кодирования : libebml v1.3.0 + libmatroska v1.4.1
_STATISTICS_WRITING_APP : mkvmerge v7.1.0 ('Good Love') 64bit built on Jul 27 2014 13:06:55
_STATISTICS_WRITING_DATE_UTC : 2014-10-11 17:33:53
_STATISTICS_TAGS : BPS DURATION NUMBER_OF_FRAMES NUMBER_OF_BYTES
DURATION : 01:37:59.616000000
NUMBER_OF_FRAMES : 183738
NUMBER_OF_BYTES : 329258496
Видео
Идентификатор : 1
Формат : AVC
Формат/Информация : Advanced Video Codec
Профиль формата : High@L3.2
Параметр CABAC формата : Да
Параметр ReFrames формата : 9 кадров
Идентификатор кодека : V_MPEG4/ISO/AVC
Продолжительность : 1 ч. 37 м.
Битрейт : 1675 Кбит/сек
Ширина : 720 пикселей
Высота : 404 пикселя
Соотношение сторон : 16:9
Режим частоты кадров : Постоянный
Частота кадров : 23,976 кадра/сек
Цветовое пространство : YUV
Субдискретизация насыщенности : 4:2:0
Битовая глубина : 8 бит
Тип развёртки : Прогрессивная
Бит/(Пиксели*Кадры) : 0.240
Размер потока : 1,11 Гбайт (63%)
Заголовок : by Vovan366 ( ExKinoRay)
Библиотека кодирования : x264 core 130 r2273 b3065e6
Настройки программы : cabac=1 / ref=9 / deblock=1:-3:-3 / analyse=0x3:0x113 / me=umh / subme=9 / psy=1 / psy_rd=1.00:0.10 / mixed_ref=1 / me_range=32 / chroma_me=1 / trellis=2 / 8x8dct=1 / cqm=0 / deadzone=21,11 / fast_pskip=1 / chroma_qp_offset=-3 / threads=6 / lookahead_threads=1 / sliced_threads=0 / nr=0 / decimate=0 / interlaced=0 / bluray_compat=0 / constrained_intra=0 / bframes=8 / b_pyramid=2 / b_adapt=2 / b_bias=0 / direct=3 / weightb=1 / open_gop=0 / weightp=2 / keyint=240 / keyint_min=23 / scenecut=40 / intra_refresh=0 / rc_lookahead=40 / rc=2pass / mbtree=1 / bitrate=1675 / ratetol=1.0 / qcomp=0.60 / qpmin=0 / qpmax=69 / qpstep=4 / cplxblur=20.0 / qblur=0.5 / ip_ratio=1.40 / aq=1:1.00
Default : Да
Forced : Нет
Аудио #1
Идентификатор : 2
Формат : AC-3
Формат/Информация : Audio Coding 3
Расширение режима : CM (complete main)
Параметр Endianness формата : Big
Идентификатор кодека : A_AC3
Продолжительность : 1 ч. 37 м.
Вид битрейта : Постоянный
Битрейт : 448 Кбит/сек
Каналы : 2 канала
Расположение каналов : Front: L R
Частота : 48,0 КГц
Битовая глубина : 16 бит
Метод сжатия : С потерями
Размер потока : 314 Мбайт (17%)
Заголовок : Лицензия
Язык : Russian
Default : Да
Forced : Нет
Аудио #2
Идентификатор : 3
Формат : AC-3
Формат/Информация : Audio Coding 3
Расширение режима : CM (complete main)
Параметр Endianness формата : Big
Идентификатор кодека : A_AC3
Продолжительность : 1 ч. 37 м.
Вид битрейта : Постоянный
Битрейт : 448 Кбит/сек
Каналы : 2 канала
Расположение каналов : Front: L R
Частота : 48,0 КГц
Битовая глубина : 16 бит
Метод сжатия : С потерями
Размер потока : 314 Мбайт (17%)
Язык : English
Default : Нет
Forced : Нет


Релиз от: by Vovan366



   Похожие торренты   Торрент   Размер 
В этой теме нет новых непрочитанных сообщений. Снайпер: Наследие / Sniper: Legacy (2014) WEB-DLRip-AVC от ExKinoRay | iTunes

891 | 68

744.18 МБ

В этой теме нет новых непрочитанных сообщений. Снайпер: Наследие / Sniper: Legacy (2014) WEB-DL 720p | ATV | P

442 | 77

3.23 ГБ

В этой теме нет новых непрочитанных сообщений. Снайпер: Наследие / Sniper: Legacy (2014) WEB-DL 1080p | iTunes

3087 | 470

3.97 ГБ

В этой теме нет новых непрочитанных сообщений. Снайпер: Наследие / Sniper: Legacy (2014) WEB-DLRip от ImperiaFilm | КПК | iTunes

264 | 28

334.98 МБ

В этой теме нет новых непрочитанных сообщений. Снайпер / American Sniper (2014) HDRip от ExKinoRay | Чистый звук

301 | 17

1.46 ГБ

В этой теме нет новых непрочитанных сообщений. Снайпер / American Sniper (2014) BDRip-AVC от ExKinoRay | Чистый звук

158 | 13

1.46 ГБ

В этой теме нет новых непрочитанных сообщений. Снайпер / American Sniper (2014) DVD9 | Лицензия

147 | 6

6.62 ГБ




Вы не можете начинать темы
Вы не можете отвечать на сообщения
Вы не можете редактировать свои сообщения
Вы не можете удалять свои сообщения
Вы не можете добавлять вложения

Перейти:  
 Вход
ppkBB3cker v.2 © 2008-2014 @ PPK
[ Time : 0.028s | 17 Queries | GZIP : Off ]

cron