img image001 image001 image001 image001 image001 image001 image001 image001 image001 image001 image001 image001 image001 image001 image001 image001

Planets Sun Sun Sun
Статистика раздачи
Автор: Nickolas3434 | Размер: 1.45 ГБ | Добавлен: 04 окт 2014
Раздают: 748    Качают: 29
Скачать торрент
Скачать торрент
Описание торрента

СообщениеДобавлено: 04 окт 2014 

Название: Том на ферме
Оригинальное название: Tom à la ferme
Год выпуска: 2013
Страна: Канада, Франция
Жанр:драма, триллер
Продолжительность:01:42:50
Перевод:Профессиональный многоголосый
Режиссер:Ксавье Долан

В ролях:



Ксавье Долан (Tom), Пьер-Ив Кардинал (Francis), Лизе Рой (Agathe), Эвелин Брошу (Sarah), Мануэль Тадрос (Le barman), Жак Лавалли (Le prêtre), Энн Карон (Le docteur), Оливье Морин (Paul), Жоанна Левелье (Employée à la station-service), Матьё Руа (Homme au dépanneur), Калеб Лэндри Джонс (Guillaume, в титрах не указан), Мелоди Симар (в титрах не указана)

Описание:
Том приезжает в деревню - проститься со своим другом и прочитать речь на похоронах. Припарковав машину рядом с коровником, он стучится в дом, где раньше жил погибший. Но Том еще не подозревает, какая опасность ждет его за дверью.



Качество: HDRip
Формат:AVI
Видео кодек: XviD
Аудио кодек:AC3
Видео: XviD, 720x384 (1.875), 1818 kbps, 24 fps, 0,274 bpp
Аудио: AC3 / 2.0 / 48 kHz / 192 kbps / 16 bit




General
Complete name : D:ТорентыTom.na.ferme.2013.P.HDRip.1.46Gb.avi
Format : AVI
Format/Info : Audio Video Interleave
File size : 1.45 GiB
Duration : 1h 42mn
Overall bit rate : 2 020 Kbps
Writing application : VirtualDubMod 1.5.10.2 (build 2540/release)
Writing library : VirtualDubMod build 2540/release

Video
ID : 0
Format : MPEG-4 Visual
Format profile : Advanced Simple@L5
Format settings, BVOP : 2
Format settings, QPel : No
Format settings, GMC : No warppoints
Format settings, Matrix : Default (MPEG)
Codec ID : XVID
Codec ID/Hint : XviD
Duration : 1h 42mn
Bit rate : 1 819 Kbps
Width : 720 pixels
Height : 384 pixels
Display aspect ratio : 1.875
Frame rate : 24.000 fps
Color space : YUV
Chroma subsampling : 4:2:0
Bit depth : 8 bits
Scan type : Progressive
Compression mode : Lossy
Bits/(Pixel*Frame) : 0.274
Stream size : 1.31 GiB (90%)
Writing library : XviD 1.2.1 (UTC 2008-12-04)

Audio
ID : 1
Format : AC-3
Format/Info : Audio Coding 3
Mode extension : CM (complete main)
Codec ID : 2000
Duration : 1h 42mn
Bit rate mode : Constant
Bit rate : 192 Kbps
Channel(s) : 2 channels
Channel positions : Front: L R
Sampling rate : 48.0 KHz
Bit depth : 16 bits
Compression mode : Lossy
Stream size : 141 MiB (10%)
Alignment : Split accross interleaves
Interleave, duration : 42 ms (1.00 video frame)
Interleave, preload duration : 500 ms




   Похожие торренты   Торрент   Размер 
В этой теме нет новых непрочитанных сообщений. Том на ферме/ Tom à la ferme (2013) HDRip | iTunes

312 | 11

2.06 ГБ

В этой теме нет новых непрочитанных сообщений. Том на ферме / Tom à la ferme (2013) WEBRip

1011 | 128

1.37 ГБ

В этой теме нет новых непрочитанных сообщений. OST - Том на ферме / Tom à la ferme (2014) MP3

20 | 2

97.47 МБ

В этой теме нет новых непрочитанных сообщений. 9 месяцев строгого режима / 9 mois ferme (2013) HDRip от MediaClub | КПК

141 | 23

311.65 МБ

В этой теме нет новых непрочитанных сообщений. 9 месяцев строгого режима / 9 mois ferme (2013) HDRip | Звук с TS

856 | 151

1.37 ГБ

В этой теме нет новых непрочитанных сообщений. 9 месяцев строгого режима / 9 mois ferme (2013) HDRip-AVC от MegaPeer | D

14 | 0

744.69 МБ

В этой теме нет новых непрочитанных сообщений. 9 месяцев строгого режима / 9 mois ferme (2013) HDRip | Чистый звук

2307 | 415

1.36 ГБ




Вы не можете начинать темы
Вы не можете отвечать на сообщения
Вы не можете редактировать свои сообщения
Вы не можете удалять свои сообщения
Вы не можете добавлять вложения

Перейти:  
 Вход
ppkBB3cker v.2 © 2008-2014 @ PPK
[ Time : 0.023s | 19 Queries | GZIP : Off ]

cron