img image001 image001 image001 image001 image001 image001 image001 image001 image001 image001 image001 image001 image001 image001 image001 image001

Planets Sun Sun Sun
Статистика раздачи
Автор: Nickolas3434 | Размер: 7.76 ГБ | Добавлен: 01 май 2014
Раздают: 219    Качают: 114
Скачать торрент
Скачать торрент
Описание торрента

СообщениеДобавлено: 01 май 2014 

Информация о фильме
Название: Город призраков
Оригинальное название: Ghost town
Год выхода: 2008
Жанр: фэнтези, мелодрама, комедия
Режиссер: Дэвид Коуп / David Koepp
В ролях: Рики Жерве, Теа Леони, Кристен Уиг, Грег Киннир, Алан Рак, Аасиф Мандви, Данаи Джекезай Гурира, Деннис Албанес, Дилан Кларк Маршал, Билл Кэмпбелл

О фильме:
Дантист-человеконенавистник переживает клиническую смерть, после которой оказывается способен видеть мертвых. Особенно сильно ему досаждает призрак бизнесмена, требующий, чтобы герой помешал грядущей свадьбе своей вдовы.



Выпущено: США
Продолжительность: 01:42:17
Перевод: Профессиональный (двухголосый закадровый) НТВ + Оригинал

Файл
Кодек: x264
Качество: BDRip 1080p
Видео: 1920x1080, 9776 Kbps, 23.976 fps
Аудио #1: AC-3, 6 ch, 448 kbps (Rus)
Аудио #2: AC-3, 6 ch, 640 kbps (Eng)
Субтитры: русские, английские
Общее
Уникальный идентификатор : 227810098640478340278363819317587544154 (0xAB62A10A1CBC87D884EC26187453085A)
Полное имя : Город призраков.2008.BDRip.1080p.Rus.Eng.mkv
Формат : Matroska
Версия формата : Version 2
Размер файла : 7,76 Гбайт
Продолжительность : 1 ч. 42 м.
Общий поток : 10,9 Мбит/сек
Название фильма : Город призраков.2008
Дата кодирования : UTC 2014-04-30 15:19:01
Программа кодирования : mkvmerge v5.8.0 ('No Sleep / Pillow') built on Sep 2 2012 15:37:04
Библиотека кодирования : libebml v1.2.3 + libmatroska v1.3.0
Обложка : Yes

Видео
Идентификатор : 1
Формат : AVC
Формат/Информация : Advanced Video Codec
Профиль формата : High@L4.1
Параметр CABAC формата : Да
Параметр ReFrames формата : 4 кадра
Идентификатор кодека : V_MPEG4/ISO/AVC
Продолжительность : 1 ч. 42 м.
Битрейт : 9776 Кбит/сек
Ширина : 1920 пикселей
Высота : 1080 пикселей
Соотношение сторон : 16:9
Режим частоты кадров : Постоянный
Частота кадров : 23,976 кадра/сек
Цветовое пространство : YUV
Субдискретизация насыщенности : 4:2:0
Битовая глубина : 8 бит
Тип развёртки : Прогрессивная
Бит/(Пиксели*Кадры) : 0.197
Размер потока : 6,83 Гбайт (88%)
Заголовок : Rip by Boriy
Библиотека кодирования : x264 core 142 r2431 ac76440
Настройки программы : cabac=1 / ref=4 / deblock=1:-3:-3 / analyse=0x3:0x113 / me=umh / subme=11 / psy=1 / psy_rd=1.00:0.00 / mixed_ref=1 / me_range=32 / chroma_me=1 / trellis=2 / 8x8dct=1 / cqm=0 / deadzone=21,11 / fast_pskip=0 / chroma_qp_offset=-2 / threads=12 / lookahead_threads=1 / sliced_threads=0 / nr=0 / decimate=0 / interlaced=0 / bluray_compat=0 / constrained_intra=0 / bframes=6 / b_pyramid=2 / b_adapt=2 / b_bias=0 / direct=3 / weightb=1 / open_gop=0 / weightp=2 / keyint=240 / keyint_min=23 / scenecut=40 / intra_refresh=0 / rc=2pass / mbtree=0 / bitrate=9776 / ratetol=1.0 / qcomp=0.60 / qpmin=0 / qpmax=69 / qpstep=4 / cplxblur=20.0 / qblur=0.5 / ip_ratio=1.40 / pb_ratio=1.30 / aq=1:1.00
Язык : English
Default : Да
Forced : Нет

Аудио #1
Идентификатор : 2
Формат : AC-3
Формат/Информация : Audio Coding 3
Расширение режима : CM (complete main)
Параметр Endianness формата : Big
Идентификатор кодека : A_AC3
Продолжительность : 1 ч. 42 м.
Вид битрейта : Постоянный
Битрейт : 448 Кбит/сек
Каналы : 6 каналов
Расположение каналов : Front: L C R, Side: L R, LFE
Частота : 48,0 КГц
Битовая глубина : 16 бит
Метод сжатия : С потерями
Размер потока : 328 Мбайт (4%)
Заголовок : Профессиональный (двухголосый закадровый) НТВ
Язык : Russian
Default : Да
Forced : Нет

Аудио #2
Идентификатор : 3
Формат : AC-3
Формат/Информация : Audio Coding 3
Расширение режима : CM (complete main)
Параметр Endianness формата : Big
Идентификатор кодека : A_AC3
Продолжительность : 1 ч. 42 м.
Вид битрейта : Постоянный
Битрейт : 640 Кбит/сек
Каналы : 6 каналов
Расположение каналов : Front: L C R, Side: L R, LFE
Частота : 48,0 КГц
Битовая глубина : 16 бит
Метод сжатия : С потерями
Размер потока : 468 Мбайт (6%)
Заголовок : Оригинал
Язык : English
Default : Нет
Forced : Нет

Текст #1
Идентификатор : 4
Формат : UTF-8
Идентификатор кодека : S_TEXT/UTF8
Идентификатор кодека/Информация : UTF-8 Plain Text
Язык : Russian
Default : Нет
Forced : Нет

Текст #2
Идентификатор : 5
Формат : UTF-8
Идентификатор кодека : S_TEXT/UTF8
Идентификатор кодека/Информация : UTF-8 Plain Text
Язык : English
Default : Нет
Forced : Нет

Меню
00:00:00.000 : :1. Main Titles
00:05:36.794 : :2. Burnett's Law
00:13:36.649 : :3. Rightin' Wrongs
00:21:14.398 : :4. Ghost Town
00:29:58.338 : :5. Will & Violet
00:39:35.998 : :6. Digger's Tip
00:48:01.712 : :7. The Good Doctor
00:58:17.285 : :8. Bounty
01:06:45.960 : :9. Buried Secrets
01:16:32.254 : :10. Father and Son
01:26:23.887 : :11. Drugged
01:37:43.732 : :12. Birthday Surprise



   Похожие торренты   Торрент   Размер 
В этой теме нет новых непрочитанных сообщений. Город призраков / Ghost Town (2008) BDRip-AVC от Rulya74 | P2

112 | 42

1.45 ГБ

В этой теме нет новых непрочитанных сообщений. Город-призрак / Ghost Town (1988) BDRemux 1080p | P, A

2 | 0

14.52 ГБ

В этой теме нет новых непрочитанных сообщений. Город-призрак / Ghost Town (1988) BDRip | A

35 | 9

751.39 МБ

В этой теме нет новых непрочитанных сообщений. Город-призрак / Ghost Town (1988) BDRip | A

79 | 16

1.46 ГБ

В этой теме нет новых непрочитанных сообщений. Город-призрак / Ghost Town (1988) BDRip-AVC от k.e.n &MegaPeer | P, A

0 | 1

2.18 ГБ

В этой теме нет новых непрочитанных сообщений. Охота на призраков / Ghost Hound! [TV] [01-02 из 22] (2008) BDRip 720p | AniFilm

18 | 9

1.55 ГБ

В этой теме нет новых непрочитанных сообщений. Город-призрак / Ghost Town (1988) НDRip | Р

47 | 13

1.45 ГБ




Вы не можете начинать темы
Вы не можете отвечать на сообщения
Вы не можете редактировать свои сообщения
Вы не можете удалять свои сообщения
Вы не можете добавлять вложения

Перейти:  
 Вход
ppkBB3cker v.2 © 2008-2014 @ PPK
[ Time : 0.041s | 18 Queries | GZIP : Off ]

cron