img image001 image001 image001 image001 image001 image001 image001 image001 image001 image001 image001 image001 image001 image001 image001 image001

Planets Sun Sun Sun
Статистика раздачи
Автор: Nickolas3434 | Размер: 1.46 ГБ | Добавлен: 20 апр 2014
Раздают: 40    Качают: 9
Скачать торрент
Скачать торрент
Описание торрента

СообщениеДобавлено: 20 апр 2014 

Страна: Польша, США
Производство: TriStar Pictures

Жанр: боевик, триллер, комедия, криминал
Год выпуска: 1990
Продолжительность: 01:34:10

Перевод: Профессиональный (двухголосый закадровый),
Авторский (одноголосый закадровый) А. Михалев, С. Визгунов
Оригинальная аудиодорожка: английский
Cубтитры: нет

Режиссер: Боб Кларк / Bob Clark

В ролях:
Джин Хэкмэн, Дэн Эйкройд, Дом ДеЛуиз, Ронни Кокс, Нэнси Трэвис, Роберт Проски, Пол Косло, Дик О'Нэйлл, Ян Триска, Леон Риппи (Gene Hackman, Dan Aykroyd, Dom DeLuise, Ronny Cox, Nancy Travis, Robert Prosky, Paul Koslo, Dick O'Neill, Jan Triska, Leon Rippy)...

Описание:
Они должны были стать идеальной командой. Мак Стерн — крутой вашингтонский коп-ветеран, не стесняющийся пускать в ход пудовые кулаки и верный пистолет. И Эллис Филдинг — умница детектив, чьи дедуктивные таланты заставили бы покраснеть от зависти самого Шерлока Холмса. Но, как известно, в любой бочке меда есть цистерна дегтя. Мак любезен как разъяренный бультерьер, а у Эллиса… У Эллиса, мягко говоря, не все дома. В минуты стресса он впадает в легкий психоз, начиная воображать себя то одним, то другим популярным телегероем. И вот этой невменяемой парочке поручают расследование серии убийств, как-то связанных со зловещими тайнами Третьего Рейха! Такого цирка жители Вашингтона еще не видели!..





Исходник: DVD5
Тип релиза: DVDRip-AVC
Контейнер: MKV

Видео: 704->836x358 (2.35:1), 23.976 fps, H264 ~ 1443 kbps avg, 0.239 bit/pixel
Аудио: 48 kHz, Dolby Digital AC3 2.0, 192 kbps DVO
Аудио: 48 kHz, Dolby Digital AC3 2.0, 192 kbps А. Михалев
Аудио: 48 kHz, Dolby Digital AC3 2.0, 192 kbps С. Визгунов
Аудио: 48 kHz, Dolby Digital AC3 2.0, 192 kbps Английский

Раздача от:
Общее
Полное имя : Bolshoy.kalibr.1990.DVDRip-AVC_[New-team]_by_AVP_Studio.mkv
Формат : Matroska
Версия формата : Version 4 / Version 2
Размер файла : 1,46 Гбайт
Продолжительность : 1 ч. 34 м.
Общий поток : 2213 Кбит/сек
Название фильма : Bolshoy.kalibr.1990.DVDRip-AVC_[New-team]_by_AVP_Studio
Дата кодирования : UTC 2014-04-19 15:45:10
Программа кодирования : mkvmerge v6.8.0 ('Theme for Great Cities') 64bit built on Mar 2 2014 21:34:26
Библиотека кодирования : libebml v1.3.0 + libmatroska v1.4.1

Видео
Идентификатор : 1
Формат : AVC
Формат/Информация : Advanced Video Codec
Профиль формата : High@L4.1
Параметр CABAC формата : Да
Параметр ReFrames формата : 8 кадров
Идентификатор кодека : V_MPEG4/ISO/AVC
Продолжительность : 1 ч. 34 м.
Битрейт : 1443 Кбит/сек
Ширина : 704 пикселя
Высота : 358 пикселей
Соотношение сторон : 2,35:1
Соотношение сторон в оригинале : 2,35:1
Режим частоты кадров : Постоянный
Частота кадров : 23,976 кадра/сек
Цветовое пространство : YUV
Субдискретизация насыщенности : 4:2:0
Битовая глубина : 8 бит
Тип развёртки : Прогрессивная
Бит/(Пиксели*Кадры) : 0.239
Размер потока : 944 Мбайт (63%)
Заголовок : Источник DVD
Библиотека кодирования : x264 core 138 r2356 a1d3d17
Настройки программы : cabac=1 / ref=8 / deblock=1:-2:-1 / analyse=0x3:0x113 / me=umh / subme=10 / psy=1 / psy_rd=1.00:0.05 / mixed_ref=1 / me_range=32 / chroma_me=1 / trellis=2 / 8x8dct=1 / cqm=0 / deadzone=21,11 / fast_pskip=0 / chroma_qp_offset=-3 / threads=3 / lookahead_threads=1 / sliced_threads=0 / nr=0 / decimate=0 / interlaced=0 / bluray_compat=0 / constrained_intra=0 / bframes=8 / b_pyramid=2 / b_adapt=2 / b_bias=0 / direct=3 / weightb=1 / open_gop=0 / weightp=2 / keyint=240 / keyint_min=24 / scenecut=40 / intra_refresh=0 / rc_lookahead=40 / rc=2pass / mbtree=1 / bitrate=1443 / ratetol=1.0 / qcomp=0.60 / qpmin=0 / qpmax=69 / qpstep=4 / cplxblur=20.0 / qblur=0.5 / ip_ratio=1.40 / aq=1:1.00
Язык : English
Default : Да
Forced : Нет

Аудио #1
Идентификатор : 2
Формат : AC-3
Формат/Информация : Audio Coding 3
Расширение режима : CM (complete main)
Параметр Endianness формата : Big
Идентификатор кодека : A_AC3
Продолжительность : 1 ч. 34 м.
Вид битрейта : Постоянный
Битрейт : 192 Кбит/сек
Каналы : 2 канала
Расположение каналов : Front: L R
Частота : 48,0 КГц
Битовая глубина : 16 бит
Метод сжатия : С потерями
Размер потока : 129 Мбайт (9%)
Заголовок : Источник DVD Dolby Digital 2,0 192 kbps DVO
Язык : Russian
Default : Да
Forced : Нет

Аудио #2
Идентификатор : 3
Формат : AC-3
Формат/Информация : Audio Coding 3
Расширение режима : CM (complete main)
Параметр Endianness формата : Big
Идентификатор кодека : A_AC3
Продолжительность : 1 ч. 34 м.
Вид битрейта : Постоянный
Битрейт : 192 Кбит/сек
Каналы : 2 канала
Расположение каналов : Front: L R
Частота : 48,0 КГц
Битовая глубина : 16 бит
Метод сжатия : С потерями
Размер потока : 129 Мбайт (9%)
Заголовок : Источник DVD Dolby Digital 2,0 192 kbps А. Михалев
Язык : Russian
Default : Нет
Forced : Нет

Аудио #3
Идентификатор : 4
Формат : AC-3
Формат/Информация : Audio Coding 3
Расширение режима : CM (complete main)
Параметр Endianness формата : Big
Идентификатор кодека : A_AC3
Продолжительность : 1 ч. 34 м.
Вид битрейта : Постоянный
Битрейт : 192 Кбит/сек
Каналы : 2 канала
Расположение каналов : Front: L R
Частота : 48,0 КГц
Битовая глубина : 16 бит
Метод сжатия : С потерями
Размер потока : 129 Мбайт (9%)
Заголовок : Источник DVD Dolby Digital 2,0 192 kbps С. Визгунов
Язык : Russian
Default : Нет
Forced : Нет

Аудио #4
Идентификатор : 5
Формат : AC-3
Формат/Информация : Audio Coding 3
Профиль формата : Dolby Digital
Расширение режима : CM (complete main)
Параметр Endianness формата : Big
Идентификатор кодека : A_AC3
Продолжительность : 1 ч. 34 м.
Вид битрейта : Постоянный
Битрейт : 192 Кбит/сек
Каналы : 2 канала
Расположение каналов : Front: L R
Частота : 48,0 КГц
Битовая глубина : 16 бит
Метод сжатия : С потерями
Размер потока : 129 Мбайт (9%)
Заголовок : Источник DVD Dolby Digital 2,0 192 kbps
Язык : English
Default : Нет
Forced : Нет

Меню
00:00:00.000 : ru:00:00:00.000000000
00:05:00.000 : :00:05:00.000000000
00:10:00.000 : :00:10:00.000000000
00:15:00.000 : :00:15:00.000000000
00:20:00.000 : :00:20:00.000000000
00:25:00.000 : :00:25:00.000000000
00:30:00.000 : :00:30:00.000000000
00:35:00.000 : :00:35:00.000000000
00:40:00.000 : :00:40:00.000000000
00:45:00.000 : :00:45:00.000000000
00:50:00.000 : :00:50:00.000000000
00:55:00.000 : :00:55:00.000000000
01:00:00.000 : :01:00:00.000000000
01:05:00.000 : :01:05:00.000000000
01:10:00.000 : :01:10:00.000000000
01:15:00.000 : :01:15:00.000000000
01:20:00.000 : :01:20:00.000000000
01:25:00.000 : :01:25:00.000000000
01:30:00.000 : :01:30:00.000000000





   Похожие торренты   Торрент   Размер 
В этой теме нет новых непрочитанных сообщений. Большой калибр / Loose Cannons (1990) DVDRip от New-Team

45 | 22

1.46 ГБ

В этой теме нет новых непрочитанных сообщений. Большой калибр / Loose Cannons (1990) DVDRip от New-Team

47 | 10

745.05 МБ

В этой теме нет новых непрочитанных сообщений. Большой калибр / Loose Cannons (1990) WEB-DLRip от Koenig | P2, A

7 | 0

1.45 ГБ

В этой теме нет новых непрочитанных сообщений. Большой калибр / Loose Cannons (1990) HDTVRip от Leon-masl | P2, A

81 | 8

1.46 ГБ

В этой теме нет новых непрочитанных сообщений. Сдвиг по фазе / Большой калибр / Loose Cannons (1990) HDTVRip 720p от Brazzass

96 | 17

4.26 ГБ

В этой теме нет новых непрочитанных сообщений. Любовь и 45 калибр / Love and a .45 (1994) DVDRip | P2

334 | 56

1.49 ГБ

В этой теме нет новых непрочитанных сообщений. Крупный калибр / Big Guns - Tony Arzenta (1973) DVDRip-AVC от ExKinoRay | P

89 | 14

2.98 ГБ




Вы не можете начинать темы
Вы не можете отвечать на сообщения
Вы не можете редактировать свои сообщения
Вы не можете удалять свои сообщения
Вы не можете добавлять вложения

Перейти:  
 Вход
ppkBB3cker v.2 © 2008-2014 @ PPK
[ Time : 0.027s | 16 Queries | GZIP : Off ]

cron