img image001 image001 image001 image001 image001 image001 image001 image001 image001 image001 image001 image001 image001 image001 image001 image001

Planets Sun Sun Sun
Статистика раздачи
Автор: Nickolas3434 | Размер: 1.46 ГБ | Добавлен: 14 апр 2014
Раздают: 208    Качают: 18
Скачать торрент
Скачать торрент
Описание торрента

СообщениеДобавлено: 14 апр 2014 

Медвежонок Тед / Третий лишний / Ted




Год выпуска: 2012
Страна: США
Жанр: Комедия
Продолжительность: 01:52:15
Перевод: Авторский (Одноголосый)[А.Карповский]
Cубтитры: нет

Режиссер: Сет МакФарлейн / Seth MacFarlane

В ролях: Марк Уолберг /Mark Wahlberg/, Мила Кунис /Mila Kunis/, Сет МакФарлейн /Seth MacFarlane/, Джоэл МакХэйл /Joel McHale/, Джованни Рибизи /Giovanni Ribisi

Описание: Джон влюблен в красавицу Лори, у него отличная работа и большие планы на будущее. Но в их отношения вмешивается третий, давний друг Джона — Тед. Он отрывается сутки напролет, предпочитает случайные связи и не желает терять друга. Но никто на самом деле не знает на что он способен, ведь Тед — большой плюшевый медведь.



Качество видео: HDRip [исх. ]
Формат видео: AVI
Видео кодек: XviD
Аудио кодек: AC3
Видео: 720x384, 23,976 fps, 1473 kbps
Аудио: 48 kHz, AC3 Dolby Digital, 3/2 (L,C,R,l,r) + LFE ch, ~384.00 kbps avg

За перевод, данного фильма у Антона Карповского, выражается благодарность "Клубу Карповского" и MeGUI в частности.


Формат : AVI
Формат/Информация : Audio Video Interleave
Размер файла : 1,46 Гбайт
Продолжительность : 1 ч. 52 м.
Общий поток : 1867 Кбит/сек
Программа кодирования : VirtualDubMod 1.5.4.1 (build 2178/release)
Библиотека кодирования : VirtualDubMod build 2178/release
Видео
Идентификатор : 0
Формат : MPEG-4 Visual
Профиль формата : Advanced Simple@L5
Параметр BVOP формата : 1
Параметр QPel формата : Нет
Параметр GMC формата : Без точки перехода
Параметр матрицы формата : Default (MPEG)
Идентификатор кодека : DX50
Идентификатор кодека/Подсказка : DivX 5
Продолжительность : 1 ч. 52 м.
Битрейт : 1473 Кбит/сек
Ширина : 720 пикселей
Высота : 384 пикселя
Соотношение сторон : 1,85:1
Частота кадров : 23,976 кадра/сек
Цветовое пространство : YUV
Субдискретизация насыщенности : 4:2:0
Битовая глубина : 8 бит
Тип развёртки : Прогрессивная
Метод сжатия : С потерями
Бит/(Пиксели*Кадры) : 0.222
Размер потока : 1,16 Гбайт (79%)
Библиотека кодирования : XviD 73
Аудио
Идентификатор : 1
Формат : AC-3
Формат/Информация : Audio Coding 3
Расширение режима : CM (complete main)
Параметр Endianness формата : Big
Идентификатор кодека : 2000
Продолжительность : 1 ч. 52 м.
Вид битрейта : Постоянный
Битрейт : 384 Кбит/сек
Каналы : 6 каналов
Расположение каналов : Front: L C R, Side: L R, LFE
Частота : 48,0 КГц
Битовая глубина : 16 бит
Метод сжатия : С потерями
Размер потока : 308 Мбайт (21%)
Выравнивание : Разделение по промежуткам
Продолжительность промежутка : 42 мс. (1,00 видеокадр)
Время предзагрузки промежутка : 500 мс.




   Похожие торренты   Торрент   Размер 
В этой теме нет новых непрочитанных сообщений. Третий лишний / Ted (2012) BDRip-AVC от Dalemake | Unrated Cut | D

92 | 3

1.45 ГБ

В этой теме нет новых непрочитанных сообщений. Третий лишний: Дилогия / Ted: Dilogy (2012-2015) BDRip-AVC от R.G. HD-Films | Unrated Cut | 60 fps

143 | 24

7.65 ГБ

В этой теме нет новых непрочитанных сообщений. Третий лишний 2 / Ted 2 (2015) BDRip-AVC | D, A | Unrated Cut

224 | 275

3.5 ГБ

В этой теме нет новых непрочитанных сообщений. Третий лишний 2 / Ted 2 (2015) BDRip 1080p | Unrated Cut | D, A | iTunes

286 | 41

13.01 ГБ

В этой теме нет новых непрочитанных сообщений. Третий лишний 2 / Ted 2 (2015) BDRip 1080p от BlueBird | Unrated Cut | A

155 | 55

13.55 ГБ

В этой теме нет новых непрочитанных сообщений. Третий лишний 2 / Ted 2 (2015) BDRip 720p от HELLYWOOD | Unrated | iTunes, A

45 | 6

7.58 ГБ

В этой теме нет новых непрочитанных сообщений. Третий лишний 2 / Ted 2 (2015) HDRip от Шкипер | Театральная версия

196 | 29

751.06 МБ




Вы не можете начинать темы
Вы не можете отвечать на сообщения
Вы не можете редактировать свои сообщения
Вы не можете удалять свои сообщения
Вы не можете добавлять вложения

Перейти:  
 Вход
ppkBB3cker v.2 © 2008-2014 @ PPK
[ Time : 0.081s | 17 Queries | GZIP : Off ]

cron