img image001 image001 image001 image001 image001 image001 image001 image001 image001 image001 image001 image001 image001 image001 image001 image001

Planets Sun Sun Sun
Статистика раздачи
Автор: Nickolas3434 | Размер: 17.82 ГБ | Добавлен: 09 апр 2014
Раздают: 29    Качают: 19
Скачать торрент
Скачать торрент
Описание торрента

СообщениеДобавлено: 09 апр 2014 

«Все умирают, но не все живут по-настоящему.»

Название: Храброе сердце
Оригинальное название: Braveheart
Год выхода: 1995
Жанр: Исторический, боевик, драма
Режиссер: Мэл Гибсон
В ролях: Мэл Гибсон, Софи Марсо, Патрик МакГуэн, Энгус Макфадьен, Брендан Глисон, Катрин МакКормак, Брайан Кокс, Джерард МакСорли, Мартин Мерфи, Томми Флэнаган, Джон Мурта, Джеймс Робинсон, Шон Лоулор, Сэнди Нельсон, Джеймс Космо, Шон МакГинли, Алан Толл, Эндрю Вейр, Герда Стивенсон

Описание: Действие фильма начинается в 1280 году в Шотландии. Это история легендарного национального героя Уильяма Уолласа, посвятившего себя борьбе с англичанами при короле Эдварде Длинноногом. Он рано лишился отца, погибшего от рук англичан, и его забрал к себе дядя Оргайл, который дал ему хорошее образование в Европе. На родину Уильям возвращается уже взрослым человеком, мечтающем завести семью и жить мирной жизнью. Но судьба распорядилась иначе. Его невесту убили англичане, и он начал свой крестовый поход за свободу.



Страна: США
Студия: B.H. Finance C.V., Icon Entertainmnet International, The Ladd Company
Продолжительность: 02:57:43
Перевод: профессиональный (дублированный), профессиональный (многоголосый, профессиональный (двухголосый), авторский (одноголосый)
Оригинальная аудиодорожка: английский
Cубтитры: русские, английские

Релиз от: |

Специальная премия Национального совета обозревателей Мелу Гибсону.

Оскар, 1996 год
Победитель (5):
Лучший фильм
Лучший режиссер (Мэл Гибсон)
Лучшая работа оператора
Лучший монтаж звука
Лучший грим
Номинации (5):
Лучший сценарий
Лучшие костюмы
Лучший звук
Лучший монтаж
Лучший саундтрек к драматическому фильму
Золотой глобус, 1996 год
Победитель (1):
Лучший режиссер (Мэл Гибсон)
Номинации (3):
Лучший фильм (драма)
Лучший сценарий
Лучший саундтрек
Премия канала «MTV», 1996 год
Победитель (1):
Лучшая экшн-сцена
Номинации (2):
Лучший фильм
Лучшая мужская роль (Мэл Гибсон)
Британская академия, 1996 год
Победитель (3):
Лучшая работа оператора
Лучшие костюмы
Лучший звук
Номинации (4):
Лучший грим/прически
Лучшая работа художника-постановщика
Премия имени Дэвида Лина за достижения в режиссуре (Мэл Гибсон)
Премия имени Энтони Эскуита за достижения в создании музыки к фильму
Сатурн, 1996 год
Номинации (3):
Лучшие костюмы
Лучшая музыка
Лучший приключенческий фильм или боевик
• Несколько главных сражений в фильме пришлось переснимать из-за того, что на статистах в кадре были замечены солнечные очки и наручные часы.
• Король Эдуард I не был язычником, как это утверждается в фильме. Более того, он был участником Восьмого крестового похода.
• Отец и брат реального Уильяма Уоллеса были убиты в 1291 году, то есть когда Уоллесу было около 21 года, а не 10, как это показано в фильме.
• Реальный Уильям Уоллес не мог быть отцом Эдуарда III, как это предполагается в фильме. Между казнью Уоллеса (1305 год) и рождением Эдуарда III (1312 год) прошло 7 лет.
• В изображении битвы при Стерлингском мосту отсутствует собственно Стерлингский мост, который сыграл важную роль в победе шотландцев.
• Захват властями Уоллеса был спровоцирован не предательством отца Роберта Брюса, как это показано в фильме, а предательством лояльного английскому королю шотландского рыцаря Джона де Ментейса.
• Синяя краска из вайды, которой накрашены лица Уоллеса и его соратников, применялась древними кельтскими воинами. В XIII веке, когда происходит действия фильма, она не использовалась.
• Король Эдуард I умер не в одно время с Уоллесом, а через два года (в 1307 году).
• Меч Уоллеса в настоящее время хранится в Британском историческом музее. Во время съемок фильма "Храброе сердце" Мел Гибсон держал в руках 12 копий этого меча. Все копии были выполнены в точном соответствии оригиналу, т. е. и размер и вес.
• Спасибо большое за исходник - BLUE_LIFE, а за авторские дорожки - JUSTKANT
• Дорожка А.Гаврилова получена наложением чистого голоса на центр декодированного DTS

Качество: BDRip 720p
Видео: MPEG-4 AVC, 7800 Кбит/с, 1280x544, 23.976 кадр/с
Аудио #1: Русский (DTS, 6 ch, 768 Кбит/с) / Дублированный (Blu-ray CEE)
Аудио #2: Русский (AC3, 6 ch, 448 Кбит/с) / Профессиональный многоголосый(Киномания)
Аудио #3: Русский (AC3, 6 ch, 448 Кбит/с) / Профессиональный двухголосый (П.Гланц и И.Королева)
Аудио #4: Русский (AC3, 2 ch, 320 Кбит/с) / Профессиональный двухголосый (Премьер Видео Фильм)
Аудио #5: Русский (AC3, 6 ch, 384 Кбит/с) / Профессиональный многоголосый (N/а)
Аудио #6: Русский (AC3, 2 ch, 224 Кбит/с) / Профессиональный многоголосый (ОРТ)
Аудио #7: Русский (DTS, 6 ch, 1536 Кбит/с) / Авторский одноголосый (А.Гаврилов)
Аудио #8: Русский (AC3, 2 ch, 224 Кбит/с) / Авторский одноголосый (И.Кашкин)
Аудио #9: Русский (AC3, 2 ch, 192 Кбит/с) / Авторский одноголосый (С.Визгунов (ранний))
Аудио #10: Русский (AC3, 2 ch, 192 Кбит/с) / Авторский одноголосый (С.Визгунов (поздний))
Аудио #13: Украинский (AC3, 2 ch, 224 Кбит/с) / Профессиональный многоголосый (1+1)
Аудио #14: Английский (DTS, 6 ch, 1536 Кбит/с)
Аудио #15: Английский (Vorbis, 2 ch, 224 Кбит/с) / Commentary by Mel Gibson
Субтитры: 3x Русские, Английские.


General
Unique ID : 223831840380423027225049240044647309736 (0xA86471C3843DD5B0A5DA8B694AB161A8)
Complete name : J:Braveheart.1995.BDRip.720p.10xRus.Ukr.2xEng.Sub.(Release for MediaClub by V1adboyko!).mkv
Format : Matroska
Format version : Version 4 / Version 2
File size : 17.8 GiB
Duration : 2h 57mn
Overall bit rate mode : Variable
Overall bit rate : 14.4 Mbps
Encoded date : UTC 2014-03-24 16:29:24
Writing application : mkvmerge v6.2.0 ('Promised Land') built on Apr 28 2013 12:22:01
Writing library : libebml v1.3.0 + libmatroska v1.4.0

Video
ID : 1
Format : AVC
Format/Info : Advanced Video Codec
Format profile : High@L4.1
Format settings, CABAC : Yes
Format settings, ReFrames : 11 frames
Codec ID : V_MPEG4/ISO/AVC
Duration : 2h 57mn
Bit rate : 7 800 Kbps
Width : 1 280 pixels
Height : 544 pixels
Display aspect ratio : 2.35:1
Frame rate : 23.976 fps
Color space : YUV
Chroma subsampling : 4:2:0
Bit depth : 8 bits
Scan type : Progressive
Bits/(Pixel*Frame) : 0.467
Stream size : 9.35 GiB (52%)
Title : Release for MediaClub by V1adboyko!
Writing library : x264 core 68 r1183M f21daff
Encoding settings : cabac=1 / ref=11 / deblock=1:-3:-3 / analyse=0x3:0x113 / me=umh / subme=9 / psy_rd=1.0:0.0 / mixed_ref=1 / me_range=64 / chroma_me=1 / trellis=2 / 8x8dct=1 / cqm=0 / deadzone=21,11 / chroma_qp_offset=-2 / threads=6 / nr=0 / decimate=1 / mbaff=0 / bframes=8 / b_pyramid=1 / b_adapt=2 / b_bias=0 / direct=3 / wpredb=1 / keyint=250 / keyint_min=25 / scenecut=40 / rc=2pass / bitrate=7800 / ratetol=1.0 / qcomp=0.60 / qpmin=10 / qpmax=51 / qpstep=4 / cplxblur=20.0 / qblur=0.5 / vbv_maxrate=50000 / vbv_bufsize=50000 / ip_ratio=1.40 / pb_ratio=1.30 / aq=1:0.70
Language : English
Default : No
Forced : No

Audio #1
ID : 2
Format : DTS
Format/Info : Digital Theater Systems
Codec ID : A_DTS
Duration : 2h 57mn
Bit rate mode : Constant
Bit rate : 755 Kbps
Channel(s) : 6 channels
Channel positions : Front: L C R, Side: L R, LFE
Sampling rate : 48.0 KHz
Bit depth : 24 bits
Compression mode : Lossy
Stream size : 959 MiB (5%)
Title : 1) DTS; 6 ch; 48 kHz; 768 kbps - [Дубляж, Blu-ray CEE]
Language : Russian
Default : Yes
Forced : No

Audio #2
ID : 3
Format : AC-3
Format/Info : Audio Coding 3
Mode extension : CM (complete main)
Format settings, Endianness : Big
Codec ID : A_AC3
Duration : 2h 57mn
Bit rate mode : Constant
Bit rate : 448 Kbps
Channel(s) : 6 channels
Channel positions : Front: L C R, Side: L R, LFE
Sampling rate : 48.0 KHz
Bit depth : 16 bits
Compression mode : Lossy
Stream size : 570 MiB (3%)
Title : 2) AC3; 6 ch; 48 kHz; 448 kbps - [Многоголосый закадровый, Киномания]
Language : Russian
Default : No
Forced : No

Audio #3
ID : 4
Format : AC-3
Format/Info : Audio Coding 3
Mode extension : CM (complete main)
Format settings, Endianness : Big
Codec ID : A_AC3
Duration : 2h 57mn
Bit rate mode : Constant
Bit rate : 448 Kbps
Channel(s) : 6 channels
Channel positions : Front: L C R, Side: L R, LFE
Sampling rate : 48.0 KHz
Bit depth : 16 bits
Compression mode : Lossy
Stream size : 570 MiB (3%)
Title : 3) AC3; 6 ch; 48 kHz; 448 kbps - [Двухголосый закадровый, П.Гланц и И.Королева]
Language : Russian
Default : No
Forced : No

Audio #4
ID : 5
Format : AC-3
Format/Info : Audio Coding 3
Mode extension : CM (complete main)
Format settings, Endianness : Big
Codec ID : A_AC3
Duration : 2h 57mn
Bit rate mode : Constant
Bit rate : 320 Kbps
Channel(s) : 2 channels
Channel positions : Front: L R
Sampling rate : 48.0 KHz
Bit depth : 16 bits
Compression mode : Lossy
Stream size : 407 MiB (2%)
Title : 4) AC3; 2 ch; 48 kHz; 224 kbps - [Двухголосый закадровый, Премьер Видео Фильм]
Language : Russian
Default : No
Forced : No

Audio #5
ID : 6
Format : AC-3
Format/Info : Audio Coding 3
Mode extension : CM (complete main)
Format settings, Endianness : Big
Codec ID : A_AC3
Duration : 2h 57mn
Bit rate mode : Constant
Bit rate : 384 Kbps
Channel(s) : 6 channels
Channel positions : Front: L C R, Side: L R, LFE
Sampling rate : 48.0 KHz
Bit depth : 16 bits
Compression mode : Lossy
Stream size : 488 MiB (3%)
Title : 5) AC3; 6 ch; 48 kHz; 384 kbps - [Многоголосый закадровый, N/а]
Language : Russian
Default : No
Forced : No

Audio #6
ID : 7
Format : AC-3
Format/Info : Audio Coding 3
Mode extension : CM (complete main)
Format settings, Endianness : Big
Codec ID : A_AC3
Duration : 2h 57mn
Bit rate mode : Constant
Bit rate : 224 Kbps
Channel(s) : 2 channels
Channel positions : Front: L R
Sampling rate : 48.0 KHz
Bit depth : 16 bits
Compression mode : Lossy
Stream size : 285 MiB (2%)
Title : 6) AC3; 2 ch; 48 kHz; 224 kbps - [Многоголосый закадровый, Орт]
Language : Russian
Default : No
Forced : No

Audio #7
ID : 8
Format : DTS
Format/Info : Digital Theater Systems
Codec ID : A_DTS
Duration : 2h 57mn
Bit rate mode : Constant
Bit rate : 1 510 Kbps
Channel(s) : 6 channels
Channel positions : Front: L C R, Side: L R, LFE
Sampling rate : 48.0 KHz
Bit depth : 24 bits
Compression mode : Lossy
Stream size : 1.87 GiB (11%)
Title : 7) DTS; 6 ch; 48 kHz; 1536 kbps - [Одноголосый закадровый, А.Гаврилов]
Language : Russian
Default : No
Forced : No

Audio #8
ID : 9
Format : AC-3
Format/Info : Audio Coding 3
Mode extension : CM (complete main)
Format settings, Endianness : Big
Codec ID : A_AC3
Duration : 2h 57mn
Bit rate mode : Constant
Bit rate : 224 Kbps
Channel(s) : 2 channels
Channel positions : Front: L R
Sampling rate : 48.0 KHz
Bit depth : 16 bits
Compression mode : Lossy
Stream size : 285 MiB (2%)
Title : 8) AC3; 2 ch; 48 kHz; 224 kbps - [Одноголосый закадровый, И.Кашкин]
Language : Russian
Default : No
Forced : No

Audio #9
ID : 10
Format : AC-3
Format/Info : Audio Coding 3
Mode extension : CM (complete main)
Format settings, Endianness : Big
Codec ID : A_AC3
Duration : 2h 57mn
Bit rate mode : Constant
Bit rate : 192 Kbps
Channel(s) : 2 channels
Channel positions : Front: L R
Sampling rate : 48.0 KHz
Bit depth : 16 bits
Compression mode : Lossy
Stream size : 244 MiB (1%)
Title : 9) AC3; 2 ch; 48 kHz; 192 kbps - [Одноголосый закадровый, С.Визгунов (ранний)]
Language : Russian
Default : No
Forced : No

Audio #10
ID : 11
Format : AC-3
Format/Info : Audio Coding 3
Mode extension : CM (complete main)
Format settings, Endianness : Big
Codec ID : A_AC3
Duration : 2h 57mn
Bit rate mode : Constant
Bit rate : 192 Kbps
Channel(s) : 2 channels
Channel positions : Front: L R
Sampling rate : 48.0 KHz
Bit depth : 16 bits
Compression mode : Lossy
Stream size : 244 MiB (1%)
Title : 10) AC3; 2 ch; 48 kHz; 192 kbps - [Одноголосый закадровый, С.Визгунов (поздний)]
Language : Russian
Default : No
Forced : No

Audio #11
ID : 12
Format : AC-3
Format/Info : Audio Coding 3
Mode extension : CM (complete main)
Format settings, Endianness : Big
Codec ID : A_AC3
Duration : 2h 57mn
Bit rate mode : Constant
Bit rate : 256 Kbps
Channel(s) : 2 channels
Channel positions : Front: L R
Sampling rate : 48.0 KHz
Bit depth : 16 bits
Compression mode : Lossy
Stream size : 325 MiB (2%)
Title : 11) AC3; 2 ch; 48 kHz; 224 kbps - [Многоголосый закадровый, 1+1]
Language : Ukrainian
Default : No
Forced : No

Audio #12
ID : 13
Format : DTS
Format/Info : Digital Theater Systems
Codec ID : A_DTS
Duration : 2h 57mn
Bit rate mode : Constant
Bit rate : 1 510 Kbps
Channel(s) : 6 channels
Channel positions : Front: L C R, Side: L R, LFE
Sampling rate : 48.0 KHz
Bit depth : 24 bits
Compression mode : Lossy
Stream size : 1.87 GiB (11%)
Title : 12) DTS; 6 ch; 48 kHz; 1510 kbps - [Original]
Language : English
Default : No
Forced : No

Audio #13
ID : 14
Format : Vorbis
Format settings, Floor : 1
Codec ID : A_VORBIS
Duration : 2h 57mn
Bit rate mode : Variable
Bit rate : 76.8 Kbps
Channel(s) : 2 channels
Sampling rate : 48.0 KHz
Compression mode : Lossy
Stream size : 97.6 MiB (1%)
Title : 13) Vorbis; 2 ch; 48 kHz; 224 kbps - [Commentary by Mel Gibson]
Writing library : libVorbis 1.0 (UTC 2002-07-17)
Language : English
Default : No
Forced : No

Text #1
ID : 15
Format : UTF-8
Codec ID : S_TEXT/UTF8
Codec ID/Info : UTF-8 Plain Text
Language : Russian
Default : No
Forced : No

Text #2
ID : 16
Format : UTF-8
Codec ID : S_TEXT/UTF8
Codec ID/Info : UTF-8 Plain Text
Title : надписи и пр.
Language : Russian
Default : No
Forced : No

Text #3
ID : 17
Format : UTF-8
Codec ID : S_TEXT/UTF8
Codec ID/Info : UTF-8 Plain Text
Title : Комментарии Мела Гибсона
Language : Russian
Default : No
Forced : No

Text #4
ID : 18
Format : ASS
Codec ID : S_TEXT/ASS
Codec ID/Info : Advanced Sub Station Alpha
Compression mode : Lossless
Language : English
Default : No
Forced : No





   Похожие торренты   Торрент   Размер 
В этой теме нет новых непрочитанных сообщений. Храброе сердце / Braveheart (1995) BDRip 720p от MediaClub | D, P, P2, A

69 | 30

8.19 ГБ

В этой теме нет новых непрочитанных сообщений. Храброе сердце / Braveheart (1995) BDRip 720p | Hi10P

45 | 7

13.06 ГБ

В этой теме нет новых непрочитанных сообщений. Храброе сердце / Braveheart (1995) BDRip 720p от Leonardo and Scarabey | D

680 | 30

6.1 ГБ

В этой теме нет новых непрочитанных сообщений. Храброе сердце / Braveheart (1995) BDRip-AVC | D, Р, Р2, A

39 | 3

9.28 ГБ

В этой теме нет новых непрочитанных сообщений. Храброе сердце / Braveheart (1995) BDRip-AVC от R.G. HD-Films | 60 fps

497 | 30

3.95 ГБ

В этой теме нет новых непрочитанных сообщений. Храброе сердце / Braveheart (1995) BDRip 1080p от R.G. HD-Films | 60 fps | D, P2, P

254 | 64

18.96 ГБ

В этой теме нет новых непрочитанных сообщений. Храброе сердце / Braveheart (1995) BDRip 1080p HEVC от TURG | Лицензия

82 | 5

5.86 ГБ




Вы не можете начинать темы
Вы не можете отвечать на сообщения
Вы не можете редактировать свои сообщения
Вы не можете удалять свои сообщения
Вы не можете добавлять вложения

Перейти:  
 Вход
ppkBB3cker v.2 © 2008-2014 @ PPK
[ Time : 0.026s | 16 Queries | GZIP : Off ]

cron