img image001 image001 image001 image001 image001 image001 image001 image001 image001 image001 image001 image001 image001 image001 image001 image001

Planets Sun Sun Sun
Статистика раздачи
Автор: Nickolas3434 | Размер: 8.99 ГБ | Добавлен: 31 мар 2014
Раздают: 36    Качают: 4
Скачать торрент
Скачать торрент
Описание торрента

СообщениеДобавлено: 31 мар 2014 

Информация о фильме
Название: Кукловоды
Оригинальное название: The Puppet Masters
Год выхода: 1994
Жанр: ужасы, фантастика, триллер
Режиссер: Стюарт Орм
В ролях: Дональд Сазерленд, Эрик Тал, Джули Уорнер, Кит Дэвид, Уилл Пэттон, Ричард Белцер, Том Мэйсон, Яфет Котто, Джерри Бэммен, Сэм Андерсон, Дж. Патрик МакКормак, Маршалл Белл, Николас Каскон, Брюс Чаркоу, Бенжамин Мутон, Дэвид Паскеси, Эндрю Робинсон, Бендж Талл, Бо Шарон, Ник Браун, Донна Гаррет, Уильям Веллман мл., Элизабет Санг, Том Дуган, Дейл Дай, Джон С. Кук, Майкл Шамус Уайлз, Тодд Брайант, Дон Джеймс, Дж. Марвин Кэмпбелл, Джеймс Пирсон, Ивэн С. Моррис, Кейти Вогт, Дэйл Харимото, Эрик Брайант Уэллс, Скотт Армстронг, Джойс Лэсли

О фильме:
Экранизация одноименного романа Р. Хайнлайна. По местному каналу новостей одного небольшого городка США проходит сообщение о том, что в окрестностях городка совершил посадку НЛО. Спустя некоторое время тот же канал опровергает высказанную ранее информацию, представляя ее как выдумку местных мальчишек.
Тем не менее, сотрудники секретной службы направляются туда для проверки сообщения и обнаруживают плохо скроенный макет космической «тарелки».
Чрезмерная любезность и гостеприимство местных жителей заставляют их задуматься о том, что же случилось на самом деле. Уверенность приходит в тот момент, когда на спине одного из жителей городка они обнаруживают странного вида существо-паразита явно неземного происхождения. Но предотвратить беду становится поздно — число людей, зараженных пришельцами, увеличивается не по дням, а по часам.


Страна: США
Киностудия: Hollywood Pictures
Продолжительность: 01:48:55
Перевод: Профессиональный (Многоголосый, закадровый)

Кодек: H.264, AVC
Качество: BDRip 1080p
Видео: MPEG-4, 1920x816, 9 Мбит/с, 25.000 кадр/с
Аудио #1: Русский (AAC, 6 ch, 48.0 KHz) Профессиональный (двухголосый закадровый) - Видеосервис
Аудио #2: Русский (AC-3, 2 ch, 192 Кбит/с) Профессиональный (многоголосый закадровый) - ОРТ
Аудио #3: Русский (AC-3, 2 ch, 192 Кбит/с) Профессиональный (двухголосый закадровый) - НТВ+
Аудио #4: Русский (AC-3, 2 ch, 192 Кбит/с) Авторский (одноголосый закадровый) - Кузнецов
Аудио #5: Английский (DTS, 2 ch, 1510 Кбит/с, 48.0 KHz)

Complete name : The.Puppet.Masters.(1994).BDRip.1080p.mkv
Format : Matroska
Format version : Version 4 / Version 2
File size : 8.99 GiB
Duration : 1h 48mn
Overall bit rate mode : Variable
Overall bit rate : 11.8 Mbps
Encoded date : UTC 2014-03-30 09:57:19
Writing application : mkvmerge v6.8.0 ('Theme for Great Cities') 64bit built on Mar 2 2014 21:34:26
Writing library : libebml v1.3.0 + libmatroska v1.4.1

Video
ID : 1
Format : AVC
Format/Info : Advanced Video Codec
Format profile : Baseline@L4.0
Format settings, CABAC : No
Format settings, ReFrames : 1 frame
Format settings, GOP : M=1, N=12
Codec ID : V_MPEG4/ISO/AVC
Bit rate mode : Variable
Maximum bit rate : 20.0 Mbps
Width : 1 920 pixels
Height : 816 pixels
Display aspect ratio : 2.35:1
Frame rate mode : Variable
Original frame rate : 25.000 fps
Color space : YUV
Chroma subsampling : 4:2:0
Bit depth : 8 bits
Scan type : Progressive
Default : Yes
Forced : No

Audio #1
ID : 2
Format : AAC
Format/Info : Advanced Audio Codec
Format profile : LC
Codec ID : A_AAC
Duration : 1h 48mn
Channel(s) : 6 channels
Channel positions : Front: L C R, Side: L R, LFE
Sampling rate : 44.1 KHz
Compression mode : Lossy
Delay relative to video : -10ms
Title : Двухголосый перевод. -=Видеосервис=-
Language : Russian
Default : Yes
Forced : No

Audio #2
ID : 3
Format : AC-3
Format/Info : Audio Coding 3
Mode extension : CM (complete main)
Format settings, Endianness : Big
Codec ID : A_AC3
Duration : 1h 48mn
Bit rate mode : Constant
Bit rate : 192 Kbps
Channel(s) : 2 channels
Channel positions : Front: L R
Sampling rate : 48.0 KHz
Bit depth : 16 bits
Compression mode : Lossy
Delay relative to video : 18ms
Stream size : 150 MiB (2%)
Title : Многоголосый. -=ОРТ=-
Language : Russian
Default : No
Forced : No

Audio #3
ID : 4
Format : AC-3
Format/Info : Audio Coding 3
Mode extension : CM (complete main)
Format settings, Endianness : Big
Codec ID : A_AC3
Duration : 1h 48mn
Bit rate mode : Constant
Bit rate : 192 Kbps
Channel(s) : 2 channels
Channel positions : Front: L R
Sampling rate : 48.0 KHz
Bit depth : 16 bits
Compression mode : Lossy
Delay relative to video : 13ms
Stream size : 150 MiB (2%)
Title : Двухголосый перевод. НТВ+
Language : Russian
Default : No
Forced : No

Audio #4
ID : 5
Format : AC-3
Format/Info : Audio Coding 3
Mode extension : CM (complete main)
Format settings, Endianness : Big
Codec ID : A_AC3
Duration : 1h 48mn
Bit rate mode : Constant
Bit rate : 192 Kbps
Channel(s) : 2 channels
Channel positions : Front: L R
Sampling rate : 48.0 KHz
Bit depth : 16 bits
Compression mode : Lossy
Delay relative to video : -10ms
Stream size : 150 MiB (2%)
Title : Авторский одноголосый. Кузнецов
Language : Russian
Default : No
Forced : No

Audio #5
ID : 6
Format : DTS
Format/Info : Digital Theater Systems
Mode : 16
Format settings, Endianness : Big
Codec ID : A_DTS
Duration : 1h 48mn
Bit rate mode : Constant
Bit rate : 1 509 Kbps
Channel(s) : 2 channels
Channel positions : Front: L R
Sampling rate : 48.0 KHz
Bit depth : 24 bits
Compression mode : Lossy
Delay relative to video : -10ms
Stream size : 1.15 GiB (13%)
Title : Английский
Language : English
Default : No
Forced : No





   Похожие торренты   Торрент   Размер 
В этой теме нет новых непрочитанных сообщений. Кукловоды / The Puppet Masters (1994) BDRip 1080p

15 | 6

15.05 ГБ

В этой теме нет новых непрочитанных сообщений. Кукловоды / The Puppet Masters (1994) HDRip

62 | 12

1.88 ГБ

В этой теме нет новых непрочитанных сообщений. Кукловоды / The Puppet Masters (1994) HDRip-AVC от k.e.n & MegaPeer | P, P2, A

17 | 0

2.65 ГБ

В этой теме нет новых непрочитанных сообщений. Кукловоды / The Puppet Masters (1994) HDRip от ExKinoRay | P (Первый канал)

2 | 0

746.44 МБ

В этой теме нет новых непрочитанных сообщений. VA - Puppet Masters: A Millennium Tribute To Metallica's Greatest Hits 1983-2014 (2CD) (2014) MP3

134 | 16

363.47 МБ

В этой теме нет новых непрочитанных сообщений. Wes Montgomery - Verve Jazz Masters 14 (1994) MP3

16 | 0

151.69 МБ

В этой теме нет новых непрочитанных сообщений. Gil Evans - Verve Jazz Masters 23 (1994) MP3

3 | 0

151.27 МБ




Вы не можете начинать темы
Вы не можете отвечать на сообщения
Вы не можете редактировать свои сообщения
Вы не можете удалять свои сообщения
Вы не можете добавлять вложения

Перейти:  
 Вход
ppkBB3cker v.2 © 2008-2014 @ PPK
[ Time : 0.042s | 16 Queries | GZIP : Off ]

cron