img image001 image001 image001 image001 image001 image001 image001 image001 image001 image001 image001 image001 image001 image001 image001 image001

Planets Sun Sun Sun
Статистика раздачи
Автор: Nickolas3434 | Размер: 6.5 ГБ | Добавлен: 21 мар 2014
Раздают: 15    Качают: 3
Скачать торрент
Скачать торрент
Описание торрента

СообщениеДобавлено: 21 мар 2014 

Информация о фильме
Название: Один в темноте
Оригинальное название: Alone in the Dark
Год выхода: 2005
Жанр: Ужасы, триллер, фантастика
Режиссер: Уве Болл
В ролях: Кристиан Слэйтер, Тара Рейд, Стивен Дорфф, Фрэнк С. Тернер, Мэттью Уолкер, Уилл Сэндерсон, Марк Эчесон, Даррен Шахлави, Карин Коновал, Крэйг Брунански

О фильме:
Частный детектив Эдвард Карнби — специалист по паранормальным явлениям, пытаясь найти истинную причину смерти своего друга, сталкивается со множеством необъяснимых загадок. Расследование приводит детектива на «Остров Теней», где Карнби оказывается перед лицом смертельной опасности, грозящей не только ему, но и всему миру. Демоны тьмы жаждут власти над миром. Один Карнби бессилен против нечисти. И тогда к детективу присоединяется его бывшая возлюбленная Эйлин, гениальный учёный-антрополог с фантастической памятью, очаровательное юное создание. Но главная опасность впереди — встреча с коварной царицей, злым духом, способным незаметно подчинить себе душу и тело любого смертного.


Страна: Канада, Германия, США / AITD Productions
Продолжительность: 01:39:46
Перевод: Дублированный + профессиональный многоголосый + профессиональный двухголосый + авторский + оригинал

Файл
Качество: BDRip 720p
Видео: MPEG-4 AVC, 6613 Кбит/с, 1280x720, 23.976 кадр/с
Аудио #1: Русский (AC3, 6 ch, 384 Кбит/с) / Дублированный (R5)
Аудио #2: Русский (AC3, 6 ch, 448 Кбит/с) / Профессиональный многоголосый (R5)
Аудио #3: Русский (AC3, 2 ch, 192 Кбит/с) / Профессиональный двухголосый (Tycoon)
Аудио #4: Русский (AC3, 2 ch, 192 Кбит/с) / Авторский одноголосый (А.Карповский)
Аудио #5: Английский (DTS, 6 ch, 1509 Кбит/с)
Субтитры: Русские, английские
Семпл

За аудио спасибо проекту GORESEWAGE
Версии с ДВД и/или другие озвучки имеют R-Rated версию (и/или отличия), на Blu-Ray'е - Unrated.
Русские дорожки содержат в различных местах - места без перевода (~ 30 фраз, переведены субтитрами (включены по умолчанию)).

Format : Matroska
Format version : Version 4 / Version 2
File size : 6.50 GiB
Duration : 1h 39mn
Overall bit rate : 9 333 Kbps
Movie name : -=MediaClub - Odessit=-
Encoded date : UTC 2014-03-19 13:03:01
Writing application : mkvmerge v6.8.0 ('Theme for Great Cities') 64bit built on Mar 2 2014 21:34:26
Writing library : libebml v1.3.0 + libmatroska v1.4.1

Video
ID : 1
Format : AVC
Format/Info : Advanced Video Codec
Format profile : High@L4.1
Format settings, CABAC : Yes
Format settings, ReFrames : 9 frames
Codec ID : V_MPEG4/ISO/AVC
Duration : 1h 39mn
Bit rate : 6 613 Kbps
Width : 1 280 pixels
Height : 720 pixels
Display aspect ratio : 16:9
Frame rate : 23.976 fps
Color space : YUV
Chroma subsampling : 4:2:0
Bit depth : 8 bits
Scan type : Progressive
Bits/(Pixel*Frame) : 0.299
Stream size : 4.48 GiB (69%)
Writing library : x264 core 142 r2409+42 04be48a tMod [8-bit@4:2:0 X86_64]
Encoding settings : cabac=1 / ref=9 / deblock=1:-3:-3 / analyse=0x3:0x113 / me=umh / subme=11 / psy=1 / fade_compensate=0.00 / psy_rd=1.00:0.05 / mixed_ref=1 / me_range=32 / chroma_me=1 / trellis=2 / 8x8dct=1 / cqm=0 / deadzone=21,11 / fast_pskip=0 / chroma_qp_offset=-3 / threads=6 / lookahead_threads=1 / sliced_threads=0 / nr=0 / decimate=0 / interlaced=0 / bluray_compat=0 / constrained_intra=0 / fgo=0 / bframes=9 / b_pyramid=2 / b_adapt=2 / b_bias=0 / direct=3 / weightb=1 / open_gop=0 / weightp=2 / keyint=240 / keyint_min=23 / scenecut=40 / intra_refresh=0 / rc=2pass / mbtree=0 / bitrate=6613 / ratetol=1.0 / qcomp=0.60 / qpmin=0:0:0 / qpmax=69:69:69 / qpstep=4 / cplxblur=20.0 / qblur=0.5 / ip_ratio=1.40 / pb_ratio=1.30 / aq=2:0.80 / aq-sensitivity=10.00 / aq-factor=1.00:1.00:1.00 / aq2=0 / aq3=0
Language : English

Audio #1
ID : 2
Format : AC-3
Format/Info : Audio Coding 3
Mode extension : CM (complete main)
Codec ID : A_AC3
Duration : 1h 39mn
Bit rate mode : Constant
Bit rate : 384 Kbps
Channel(s) : 6 channels
Channel positions : Front: L C R, Side: L R, LFE
Sampling rate : 48.0 KHz
Bit depth : 16 bits
Compression mode : Lossy
Stream size : 274 MiB (4%)
Title : Дублированный (R5)
Language : Russian

Audio #2
ID : 3
Format : AC-3
Format/Info : Audio Coding 3
Mode extension : CM (complete main)
Codec ID : A_AC3
Duration : 1h 39mn
Bit rate mode : Constant
Bit rate : 448 Kbps
Channel(s) : 6 channels
Channel positions : Front: L C R, Side: L R, LFE
Sampling rate : 48.0 KHz
Bit depth : 16 bits
Compression mode : Lossy
Stream size : 320 MiB (5%)
Title : Профессиональный многоголосый (R5)
Language : Russian

Audio #3
ID : 4
Format : AC-3
Format/Info : Audio Coding 3
Mode extension : CM (complete main)
Codec ID : A_AC3
Duration : 1h 39mn
Bit rate mode : Constant
Bit rate : 192 Kbps
Channel(s) : 2 channels
Channel positions : Front: L R
Sampling rate : 48.0 KHz
Bit depth : 16 bits
Compression mode : Lossy
Stream size : 137 MiB (2%)
Title : Профессиональный двухголосый (Tycoon)
Language : Russian

Audio #4
ID : 5
Format : AC-3
Format/Info : Audio Coding 3
Mode extension : CM (complete main)
Codec ID : A_AC3
Duration : 1h 39mn
Bit rate mode : Constant
Bit rate : 192 Kbps
Channel(s) : 2 channels
Channel positions : Front: L R
Sampling rate : 48.0 KHz
Bit depth : 16 bits
Compression mode : Lossy
Stream size : 137 MiB (2%)
Title : Авторский одноголосый (А.Карповский)
Language : Russian

Audio #5
ID : 6
Format : DTS
Format/Info : Digital Theater Systems
Codec ID : A_DTS
Duration : 1h 39mn
Bit rate mode : Constant
Bit rate : 1 510 Kbps
Channel(s) : 6 channels
Channel positions : Front: L C R, Side: L R, LFE
Sampling rate : 48.0 KHz
Bit depth : 16 bits
Compression mode : Lossy
Stream size : 1.05 GiB (16%)
Language : English

Text #1
ID : 7
Format : UTF-8
Codec ID : S_TEXT/UTF8
Codec ID/Info : UTF-8 Plain Text
Title : Forced
Language : Russian

Text #2
ID : 8
Format : UTF-8
Codec ID : S_TEXT/UTF8
Codec ID/Info : UTF-8 Plain Text
Title : Full
Language : Russian

Text #3
ID : 9
Format : UTF-8
Codec ID : S_TEXT/UTF8
Codec ID/Info : UTF-8 Plain Text
Title : Full
Language : English

Menu
00:00:00.000 : :Chapter 01
00:04:13.962 : :Chapter 02
00:12:23.492 : :Chapter 03
00:21:51.643 : :Chapter 04
00:28:20.115 : :Chapter 05
00:34:52.090 : :Chapter 06
00:42:40.975 : :Chapter 07
00:48:04.631 : :Chapter 08
00:56:00.690 : :Chapter 09
01:03:37.313 : :Chapter 10
01:10:48.953 : :Chapter 11
01:18:18.777 : :Chapter 12
01:24:55.256 : :Chapter 13
01:29:32.200 : :Chapter 14
01:31:59.931 : :Chapter 15

x264 [info]: frame I:915 Avg QP:14.89 size:130466
x264 [info]: frame P:33774 Avg QP:17.01 size: 56635
x264 [info]: frame B:108847 Avg QP:19.30 size: 26748
x264 [info]: consecutive B-frames: 2.6% 4.2% 7.8% 31.7% 10.8% 34.1% 2.9% 3.5% 0.9% 1.4%
x264 [info]: mb I I16..4: 9.5% 76.9% 13.6%
x264 [info]: mb P I16..4: 1.9% 20.0% 1.4% P16..4: 28.2% 32.8% 10.7% 0.0% 0.0% skip: 5.0%
x264 [info]: mb B I16..4: 0.1% 2.2% 0.1% B16..8: 37.3% 22.2% 4.2% direct: 9.8% skip:24.1% L0:43.9% L1:42.2% BI:13.9%
x264 [info]: 8x8 transform intra:85.7% inter:59.4%
x264 [info]: direct mvs spatial:97.0% temporal:3.0%
x264 [info]: coded y,uvDC,uvAC intra: 88.8% 82.2% 64.4% inter: 43.1% 36.3% 12.4%
x264 [info]: i16 v,h,dc,p: 63% 11% 8% 18%
x264 [info]: i8 v,h,dc,ddl,ddr,vr,hd,vl,hu: 8% 7% 12% 10% 13% 13% 12% 11% 13%
x264 [info]: i4 v,h,dc,ddl,ddr,vr,hd,vl,hu: 10% 7% 21% 7% 12% 12% 11% 9% 10%
x264 [info]: i8c dc,h,v,p: 45% 26% 16% 13%
x264 [info]: Weighted P-Frames: Y:14.7% UV:9.7%
x264 [info]: ref P L0: 40.1% 7.8% 18.8% 9.2% 6.7% 6.0% 4.8% 3.1% 2.7% 0.7% 0.1%
x264 [info]: ref B L0: 70.3% 12.5% 6.7% 3.5% 2.7% 2.4% 1.5% 0.4%
x264 [info]: ref B L1: 92.2% 7.8%
x264 [info]: kb/s:6606.23



Релиз от: |



   Похожие торренты   Торрент   Размер 
В этой теме нет новых непрочитанных сообщений. Один в темноте / Alone in the Dark (2005) BDRip-AVC от MediaClub

28 | 11

3.32 ГБ

В этой теме нет новых непрочитанных сообщений. Один в темноте / Alone in the Dark (2005) BDRip 1080p от MediaClub

9 | 5

8.87 ГБ

В этой теме нет новых непрочитанных сообщений. Один в темноте / Alone in the Dark (2005) BDRip-AVC от Rulya74

40 | 6

1.45 ГБ

В этой теме нет новых непрочитанных сообщений. Один в темноте / Alone in the Dark (2005) BDRip от HQCLUB | Unrated

79 | 21

2.18 ГБ

В этой теме нет новых непрочитанных сообщений. OST - Один В Темноте / Alone In The Dark - (2005) MP3

0 | 2

266.45 МБ

В этой теме нет новых непрочитанных сообщений. Один в темноте 2 / Alone in the Dark II (2008) BDRip от HQCLUB

147 | 19

1.45 ГБ

В этой теме нет новых непрочитанных сообщений. Один в темноте 2 / Alone in the Dark II (2008) BDRip 1080p | P, L2

0 | 5

7.85 ГБ




Вы не можете начинать темы
Вы не можете отвечать на сообщения
Вы не можете редактировать свои сообщения
Вы не можете удалять свои сообщения
Вы не можете добавлять вложения

Перейти:  
 Вход
ppkBB3cker v.2 © 2008-2014 @ PPK
[ Time : 0.035s | 16 Queries | GZIP : Off ]

cron