img image001 image001 image001 image001 image001 image001 image001 image001 image001 image001 image001 image001 image001 image001 image001 image001

Planets Sun Sun Sun
Статистика раздачи
Автор: Nickolas3434 | Размер: 14.94 ГБ | Добавлен: 22 фев 2014
Раздают: 466    Качают: 45
Скачать торрент
Скачать торрент
Описание торрента

СообщениеДобавлено: 22 фев 2014 

Побег из Шоушенка / The Shawshank Redemption
«Страх - это кандалы. Надежда - это свобода.»



Страна: США
Студия: Castle Rock Entertainment
Жанр: Драма, криминал
Год выпуска: 1994
Продолжительность: 2:22:33

Перевод: Профессиональный (многоголосый закадровый), Профессиональный (двухголосый закадровый), Авторский (одноголосый закадровый)...

Cубтитры: русские, английские
Оригинальная аудиодорожка: английская

Режиссер: Фрэнк Дарабонт / Frank Darabont

В ролях: Тим Роббинс (Andy Dufresne), Морган Фриман (Ellis Boyd "Red" Redding), (Warden Norton), Уильям Сэдлер (Heywood), (Captain Hadley), Джил Беллоуз (Tommy), (Bogs Diamond), Джеймс Уитмор (Brooks Hatlen), (1946 D.A.), Ларри Бранденбург (Skeet), (Jigger), Брайан Либби (Floyd)...

Описание: Шоушенк — название тюрьмы. И если тебе нет еще 30-ти, а ты получаешь пожизненное, то приготовься к худшему: для тебя выхода из Шоушенка не будет!
Актриса Рита Хэйворт — любимица всей Америки. Энди Дифрейну она тоже очень нравилась. Рита никогда не слышала о существовании Энди, однако жизнь Дифрейну, бывшему вице-президенту крупного банка, осужденному за убийство жены и ее любовника, Рита Хэйворт все-таки спасла.

Релиз от: |

Автор рипа: _Flash

Качество видео: BDRip 1080р (The.Shawshank.Redemption.1994.BDRemux.12xRus.Ukr.2xEng.mkv )
Формат видео: MKV
Видео кодек: x264
Аудио кодек: AC3

Видео: AVC / High@L4.1 / 2 pass / 23.976 fps / 1920x1080p / 9,5 Mbps / 0.191
Аудио #01:48 kHz, AC3 Dolby Digital, 2/0 (L,R), ~192.00 kbps |Многоголосый закадровый, РТР (ТВЦ)|
Аудио #02:48 kHz, AC3 Dolby Digital, 3/2 (L,C,R,l,r) + LFE ch, ~448.00 kbps |Многоголосый закадровый, Киномания|
Аудио #03: 48 kHz, AC3 Dolby Digital, 3/2 (L,C,R,l,r) + LFE ch, ~448.00 kbps |Многоголосый закадровый, СОЮЗ Видео|
Аудио #04: 48 kHz, AC3 Dolby Digital, 3/2 (L,C,R,l,r) + LFE ch, ~384.00 kbps |Многоголосый закадровый, LDV|
Аудио #05:48 kHz, AC3 Dolby Digital, 2/0 (L,R), ~192.00 kbps |Многоголосый закадровый, ОРТ|
Аудио #06: 48 kHz, AC3 Dolby Digital, 2/0 (L,R), ~192.00 kbps |Многоголосый закадровый, СТС|
Аудио #07: 48 kHz, AC3 Dolby Digital, 3/2 (L,C,R,l,r) + LFE ch, ~384.00 kbps ||Двухголосый закадровый, Videogram|
Аудио #08:48 kHz, AC3 Dolby Digital, 2/0 (L,R), ~448.00 kbps |Двухголосый закадровый, Видеофильм|
Аудио #09: 48 kHz, AC3 Dolby Digital, 2/0 (L,R), ~192.00 kbps |Одноголосый закадровый, Антон Алексеев|
Аудио #10: 48 kHz, AC3 Dolby Digital, 3/2 (L,C,R,l,r) + LFE ch, ~448.00 kbps |Одноголосый закадровый, Андрей Гаврилов|
Аудио #11: 48 kHz, AC3 Dolby Digital, 3/2 (L,C,R,l,r) + LFE ch, ~448.00 kbps |Одноголосый закадровый, Василий Горчаков|
Аудио #12: 48 kHz, AC3 Dolby Digital, 3/2 (L,C,R,l,r) + LFE ch, ~448.00 kbps |Одноголосый закадровый, Юрий Живов|
Аудио #13: 48 kHz, AC3 Dolby Digital, 3/2 (L,C,R,l,r) + LFE ch, ~448.00 kbps |Одноголосый закадровый, Юрий Сербин|
Аудио #14:48 kHz, AC3 Dolby Digital, 2/0 (L,R), ~192.00 kbps |Одноголосый закадровый, Сергей Визгунов|
Аудио #15:48 kHz, AC3 Dolby Digital, 2/0 (L,R), ~192.00 kbps |Многоголосый закадровый|
Аудио #16:48 kHz, AC3 Dolby Digital, 3/2 (L,C,R,l,r) + LFE ch, ~448.00 kbps avg |Оригинал|

Формат субтитров: softsub (SRT)
: Киномания, СОЮЗ Видео, Sunny-Sko (v.2 | Содержит мат)
Английские SDH, Full, (2 варианта)

Дополнительно: Сохранены оригинальные чаптеры (главы) как на Blu-ray




Общее
Уникальный идентификатор : 250477131698617919589158645918637818239 (0xBC70240D953C27F1B116113403ED017F)
Полное имя : C:Users1DesktopThe.Shawshank.Redemption.1994.BDRip_1080p.By_Flash.mkv
Формат : Matroska
Версия формата : Version 2
Размер файла : 14,9 Гбайт
Продолжительность : 2 ч. 22 м.
Общий поток : 15,0 Мбит/сек
Название фильма : The.Shawshank.Redemption.1994.BDRip_1080p.By_Flash
Дата кодирования : UTC 2014-02-20 17:05:32
Программа кодирования : mkvmerge v5.8.0 ('No Sleep / Pillow') built on Sep 2 2012 15:37:04
Библиотека кодирования : libebml v1.2.3 + libmatroska v1.3.0

Видео
Идентификатор : 1
Формат : AVC
Формат/Информация : Advanced Video Codec
Профиль формата : High@L4.1
Параметр CABAC формата : Да
Параметр ReFrames формата : 4 кадра
Режим смешивания : Header stripping
Идентификатор кодека : V_MPEG4/ISO/AVC
Продолжительность : 2 ч. 22 м.
Битрейт : 9500 Кбит/сек
Ширина : 1920 пикселей
Высота : 1080 пикселей
Соотношение сторон : 16:9
Режим частоты кадров : Постоянный
Частота кадров : 23,976 кадра/сек
Цветовое пространство : YUV
Субдискретизация насыщенности : 4:2:0
Битовая глубина : 8 бит
Тип развёртки : Прогрессивная
Бит/(Пиксели*Кадры) : 0.191
Размер потока : 9,16 Гбайт (61%)
Библиотека кодирования : x264 core 138 r2356 a1d3d17
Настройки программы : cabac=1 / ref=4 / deblock=1:-3:-3 / analyse=0x3:0x113 / me=umh / subme=10 / psy=1 / psy_rd=1.00:0.05 / mixed_ref=1 / me_range=32 / chroma_me=1 / trellis=2 / 8x8dct=1 / cqm=0 / deadzone=21,11 / fast_pskip=0 / chroma_qp_offset=-3 / threads=6 / lookahead_threads=1 / sliced_threads=0 / nr=0 / decimate=0 / interlaced=0 / bluray_compat=0 / constrained_intra=0 / bframes=8 / b_pyramid=2 / b_adapt=2 / b_bias=0 / direct=3 / weightb=1 / open_gop=0 / weightp=2 / keyint=240 / keyint_min=24 / scenecut=40 / intra_refresh=0 / rc_lookahead=40 / rc=2pass / mbtree=1 / bitrate=9500 / ratetol=1.0 / qcomp=0.60 / qpmin=0 / qpmax=69 / qpstep=4 / cplxblur=20.0 / qblur=0.5 / ip_ratio=1.40 / aq=1:1.00
Язык : English
Default : Да
Forced : Нет

Аудио #1
Идентификатор : 2
Формат : AC-3
Формат/Информация : Audio Coding 3
Расширение режима : CM (complete main)
Параметр Endianness формата : Big
Режим смешивания : Header stripping
Идентификатор кодека : A_AC3
Продолжительность : 2 ч. 22 м.
Вид битрейта : Постоянный
Битрейт : 192 Кбит/сек
Каналы : 2 канала
Расположение каналов : Front: L R
Частота : 48,0 КГц
Битовая глубина : 16 бит
Метод сжатия : С потерями
Размер потока : 196 Мбайт (1%)
Заголовок : ртр
Default : Да
Forced : Нет

Аудио #2
Идентификатор : 3
Формат : AC-3
Формат/Информация : Audio Coding 3
Расширение режима : CM (complete main)
Параметр Endianness формата : Big
Режим смешивания : Header stripping
Идентификатор кодека : A_AC3
Продолжительность : 2 ч. 22 м.
Вид битрейта : Постоянный
Битрейт : 448 Кбит/сек
Каналы : 6 каналов
Расположение каналов : Front: L C R, Side: L R, LFE
Частота : 48,0 КГц
Битовая глубина : 16 бит
Метод сжатия : С потерями
Размер потока : 457 Мбайт (3%)
Заголовок : киномания
Default : Нет
Forced : Нет

Аудио #3
Идентификатор : 4
Формат : AC-3
Формат/Информация : Audio Coding 3
Расширение режима : CM (complete main)
Параметр Endianness формата : Big
Режим смешивания : Header stripping
Идентификатор кодека : A_AC3
Продолжительность : 2 ч. 22 м.
Вид битрейта : Постоянный
Битрейт : 448 Кбит/сек
Каналы : 6 каналов
Расположение каналов : Front: L C R, Side: L R, LFE
Частота : 48,0 КГц
Битовая глубина : 16 бит
Метод сжатия : С потерями
Размер потока : 457 Мбайт (3%)
Заголовок : союз видео
Default : Нет
Forced : Нет

Аудио #4
Идентификатор : 5
Формат : AC-3
Формат/Информация : Audio Coding 3
Расширение режима : CM (complete main)
Параметр Endianness формата : Big
Режим смешивания : Header stripping
Идентификатор кодека : A_AC3
Продолжительность : 2 ч. 22 м.
Вид битрейта : Постоянный
Битрейт : 384 Кбит/сек
Каналы : 6 каналов
Расположение каналов : Front: L C R, Side: L R, LFE
Частота : 48,0 КГц
Битовая глубина : 16 бит
Метод сжатия : С потерями
Размер потока : 392 Мбайт (3%)
Заголовок : лдв
Default : Нет
Forced : Нет

Аудио #5
Идентификатор : 6
Формат : AC-3
Формат/Информация : Audio Coding 3
Расширение режима : CM (complete main)
Параметр Endianness формата : Big
Режим смешивания : Header stripping
Идентификатор кодека : A_AC3
Продолжительность : 2 ч. 22 м.
Вид битрейта : Постоянный
Битрейт : 192 Кбит/сек
Каналы : 2 канала
Расположение каналов : Front: L R
Частота : 48,0 КГц
Битовая глубина : 16 бит
Метод сжатия : С потерями
Размер потока : 196 Мбайт (1%)
Заголовок : орт
Default : Нет
Forced : Нет

Аудио #6
Идентификатор : 7
Формат : AC-3
Формат/Информация : Audio Coding 3
Расширение режима : CM (complete main)
Параметр Endianness формата : Big
Режим смешивания : Header stripping
Идентификатор кодека : A_AC3
Продолжительность : 2 ч. 22 м.
Вид битрейта : Постоянный
Битрейт : 192 Кбит/сек
Каналы : 2 канала
Расположение каналов : Front: L R
Частота : 48,0 КГц
Битовая глубина : 16 бит
Метод сжатия : С потерями
Размер потока : 196 Мбайт (1%)
Заголовок : стс
Default : Нет
Forced : Нет

Аудио #7
Идентификатор : 8
Формат : AC-3
Формат/Информация : Audio Coding 3
Расширение режима : CM (complete main)
Параметр Endianness формата : Big
Режим смешивания : Header stripping
Идентификатор кодека : A_AC3
Продолжительность : 2 ч. 22 м.
Вид битрейта : Постоянный
Битрейт : 384 Кбит/сек
Каналы : 6 каналов
Расположение каналов : Front: L C R, Side: L R, LFE
Частота : 48,0 КГц
Битовая глубина : 16 бит
Метод сжатия : С потерями
Размер потока : 392 Мбайт (3%)
Заголовок : видеограм
Default : Нет
Forced : Нет

Аудио #8
Идентификатор : 9
Формат : AC-3
Формат/Информация : Audio Coding 3
Расширение режима : CM (complete main)
Параметр Endianness формата : Big
Режим смешивания : Header stripping
Идентификатор кодека : A_AC3
Продолжительность : 2 ч. 22 м.
Вид битрейта : Постоянный
Битрейт : 448 Кбит/сек
Каналы : 6 каналов
Расположение каналов : Front: L C R, Side: L R, LFE
Частота : 48,0 КГц
Битовая глубина : 16 бит
Метод сжатия : С потерями
Размер потока : 457 Мбайт (3%)
Заголовок : видеофильм
Default : Нет
Forced : Нет

Аудио #9
Идентификатор : 10
Формат : AC-3
Формат/Информация : Audio Coding 3
Расширение режима : CM (complete main)
Параметр Endianness формата : Big
Режим смешивания : Header stripping
Идентификатор кодека : A_AC3
Продолжительность : 2 ч. 22 м.
Вид битрейта : Постоянный
Битрейт : 192 Кбит/сек
Каналы : 2 канала
Расположение каналов : Front: L R
Частота : 44,1 КГц
Битовая глубина : 16 бит
Метод сжатия : С потерями
Размер потока : 196 Мбайт (1%)
Заголовок : алексеев
Default : Нет
Forced : Нет

Аудио #10
Идентификатор : 11
Формат : AC-3
Формат/Информация : Audio Coding 3
Расширение режима : CM (complete main)
Параметр Endianness формата : Big
Режим смешивания : Header stripping
Идентификатор кодека : A_AC3
Продолжительность : 2 ч. 22 м.
Вид битрейта : Постоянный
Битрейт : 448 Кбит/сек
Каналы : 6 каналов
Расположение каналов : Front: L C R, Side: L R, LFE
Частота : 48,0 КГц
Битовая глубина : 16 бит
Метод сжатия : С потерями
Размер потока : 457 Мбайт (3%)
Заголовок : гаврилов
Default : Нет
Forced : Нет

Аудио #11
Идентификатор : 12
Формат : AC-3
Формат/Информация : Audio Coding 3
Расширение режима : CM (complete main)
Параметр Endianness формата : Big
Режим смешивания : Header stripping
Идентификатор кодека : A_AC3
Продолжительность : 2 ч. 22 м.
Вид битрейта : Постоянный
Битрейт : 448 Кбит/сек
Каналы : 6 каналов
Расположение каналов : Front: L C R, Side: L R, LFE
Частота : 48,0 КГц
Битовая глубина : 16 бит
Метод сжатия : С потерями
Размер потока : 457 Мбайт (3%)
Заголовок : горчаков
Default : Нет
Forced : Нет

Аудио #12
Идентификатор : 13
Формат : AC-3
Формат/Информация : Audio Coding 3
Расширение режима : CM (complete main)
Параметр Endianness формата : Big
Режим смешивания : Header stripping
Идентификатор кодека : A_AC3
Продолжительность : 2 ч. 22 м.
Вид битрейта : Постоянный
Битрейт : 448 Кбит/сек
Каналы : 6 каналов
Расположение каналов : Front: L C R, Side: L R, LFE
Частота : 48,0 КГц
Битовая глубина : 16 бит
Метод сжатия : С потерями
Размер потока : 457 Мбайт (3%)
Заголовок : живов
Default : Нет
Forced : Нет

Аудио #13
Идентификатор : 14
Формат : AC-3
Формат/Информация : Audio Coding 3
Расширение режима : CM (complete main)
Параметр Endianness формата : Big
Режим смешивания : Header stripping
Идентификатор кодека : A_AC3
Продолжительность : 2 ч. 22 м.
Вид битрейта : Постоянный
Битрейт : 448 Кбит/сек
Каналы : 6 каналов
Расположение каналов : Front: L C R, Side: L R, LFE
Частота : 48,0 КГц
Битовая глубина : 16 бит
Метод сжатия : С потерями
Размер потока : 457 Мбайт (3%)
Заголовок : сербин
Default : Нет
Forced : Нет

Аудио #14
Идентификатор : 15
Формат : AC-3
Формат/Информация : Audio Coding 3
Расширение режима : CM (complete main)
Параметр Endianness формата : Big
Режим смешивания : Header stripping
Идентификатор кодека : A_AC3
Продолжительность : 2 ч. 22 м.
Вид битрейта : Постоянный
Битрейт : 192 Кбит/сек
Каналы : 2 канала
Расположение каналов : Front: L R
Частота : 44,1 КГц
Битовая глубина : 16 бит
Метод сжатия : С потерями
Размер потока : 196 Мбайт (1%)
Заголовок : визгунов
Default : Нет
Forced : Нет

Аудио #15
Идентификатор : 16
Формат : AC-3
Формат/Информация : Audio Coding 3
Расширение режима : CM (complete main)
Параметр Endianness формата : Big
Режим смешивания : Header stripping
Идентификатор кодека : A_AC3
Продолжительность : 2 ч. 22 м.
Вид битрейта : Постоянный
Битрейт : 192 Кбит/сек
Каналы : 2 канала
Расположение каналов : Front: L R
Частота : 48,0 КГц
Битовая глубина : 16 бит
Метод сжатия : С потерями
Размер потока : 196 Мбайт (1%)
Заголовок : укр
Default : Нет
Forced : Нет

Аудио #16
Идентификатор : 17
Формат : AC-3
Формат/Информация : Audio Coding 3
Расширение режима : CM (complete main)
Параметр Endianness формата : Big
Режим смешивания : Header stripping
Идентификатор кодека : A_AC3
Продолжительность : 2 ч. 22 м.
Вид битрейта : Постоянный
Битрейт : 448 Кбит/сек
Каналы : 6 каналов
Расположение каналов : Front: L C R, Side: L R, LFE
Частота : 48,0 КГц
Битовая глубина : 16 бит
Метод сжатия : С потерями
Размер потока : 457 Мбайт (3%)
Заголовок : анг
Default : Нет
Forced : Нет

Текст #1
Идентификатор : 18
Формат : UTF-8
Идентификатор кодека : S_TEXT/UTF8
Идентификатор кодека/Информация : UTF-8 Plain Text
Заголовок : киномания
Default : Нет
Forced : Нет

Текст #2
Идентификатор : 19
Формат : UTF-8
Идентификатор кодека : S_TEXT/UTF8
Идентификатор кодека/Информация : UTF-8 Plain Text
Заголовок : союзвидео
Default : Нет
Forced : Нет

Текст #3
Идентификатор : 20
Формат : UTF-8
Идентификатор кодека : S_TEXT/UTF8
Идентификатор кодека/Информация : UTF-8 Plain Text
Заголовок : сани-ско
Default : Нет
Forced : Нет

Текст #4
Идентификатор : 21
Формат : UTF-8
Идентификатор кодека : S_TEXT/UTF8
Идентификатор кодека/Информация : UTF-8 Plain Text
Заголовок : рус
Default : Нет
Forced : Нет

Текст #5
Идентификатор : 22
Формат : UTF-8
Идентификатор кодека : S_TEXT/UTF8
Идентификатор кодека/Информация : UTF-8 Plain Text
Заголовок : енг-1
Default : Нет
Forced : Нет

Текст #6
Идентификатор : 23
Формат : UTF-8
Идентификатор кодека : S_TEXT/UTF8
Идентификатор кодека/Информация : UTF-8 Plain Text
Заголовок : енг-2
Default : Нет
Forced : Нет

Текст #7
Идентификатор : 24
Формат : UTF-8
Идентификатор кодека : S_TEXT/UTF8
Идентификатор кодека/Информация : UTF-8 Plain Text
Заголовок : енг-0
Default : Нет
Forced : Нет

Меню
00:00:00.000 : en:On Trial
00:04:39.967 : en:Icy/remorseless
00:06:39.500 : en:This guy who can get it
00:10:06.800 : en:A stiff breeze and other arrivals
00:13:53.133 : en:Fresh fish
00:17:58.967 : en:Nameless
00:23:41.967 : en:First request
00:28:59.467 : en:Andy's routine
00:33:30.967 : en:Beer on the roof
00:38:48.634 : en:Just like everybody else
00:41:03.967 : en:Second request
00:42:38.133 : en:A pair of beatings
00:46:11.666 : en:Welcome back
00:48:11.633 : en:Cell toss
00:51:18.500 : en:A cottage industry
00:57:15.800 : en:Exactly what they take
01:00:23.966 : en:Brooks was here
01:05:41.966 : en:A shipment for Andy
01:07:12.666 : en:Time out for Mozart
01:10:59.466 : en:The danger of hope
01:13:48.833 : en:Parole rejection present
01:15:51.133 : en:Keeping the books
01:21:03.466 : en:A crook in prison
01:23:53.966 : en:Tommy Williams
01:29:20.966 : en:Elmo Blatch
01:32:04.999 : en:Solitary
01:35:31.466 : en:Sniper's target
01:38:22.966 : en:Catching Norton's drift
01:40:32.466 : en:A certain hay field
01:47:16.799 : en:The longest night
01:50:39.499 : en:Vanished
01:54:24.299 : en:Andy's way out
02:00:28.332 : en:His judgement cometh
02:04:01.965 : en:Not meant to be caged
02:05:43.465 : en:Rehabilitated?
02:08:18.165 : en:On the outside
02:10:05.798 : en:Honoring a promise
02:12:48.298 : en:"No good thing ever dies"
02:16:19.631 : en:A free man's dreams
02:17:59.331 : en:Dedication and End Credits








   Похожие торренты   Торрент   Размер 
В этой теме нет новых непрочитанных сообщений. Побег из Шоушенка / The Shawshank Redemption (1994) BDRip-AVC | P, P2, A

74 | 2

4.34 ГБ

В этой теме нет новых непрочитанных сообщений. Побег из Шоушенка / The Shawshank Redemption (1994) BDRip-AVC от HELLYWOOD

1240 | 41

2.91 ГБ

В этой теме нет новых непрочитанных сообщений. Побег из Шоушенка / The Shawshank Redemption (1994) BDRip-AVC от R.G. HD-Films | 60 fps

500 | 26

3.89 ГБ

В этой теме нет новых непрочитанных сообщений. Побег из Шоушенка / The Shawshank Redemption (1994) BDRip от Dalemake | P

766 | 23

1.46 ГБ

В этой теме нет новых непрочитанных сообщений. Побег из Шоушенка / The Shawshank Redemption (1994) BDRip от MediaClub | КПК

352 | 15

642.62 МБ

В этой теме нет новых непрочитанных сообщений. Побег из Шоушенка / The Shawshank Redemption (1994) BDRip 720p от MediaClub | P, P2, A

2 | 41

9.06 ГБ

В этой теме нет новых непрочитанных сообщений. Побег из Шоушенка / The Shawshank Redemption (1994) Blu-Ray | P

50 | 19

26.54 ГБ




Вы не можете начинать темы
Вы не можете отвечать на сообщения
Вы не можете редактировать свои сообщения
Вы не можете удалять свои сообщения
Вы не можете добавлять вложения

Перейти:  
 Вход
ppkBB3cker v.2 © 2008-2014 @ PPK
[ Time : 0.052s | 17 Queries | GZIP : Off ]

cron