img image001 image001 image001 image001 image001 image001 image001 image001 image001 image001 image001 image001 image001 image001 image001 image001

Planets Sun Sun Sun
Статистика раздачи
Автор: PriZraK | Размер: 2.96 ГБ | Добавлен: 13 фев 2014
Раздают: 311    Качают: 43
Скачать торрент
Скачать торрент
Описание торрента

СообщениеДобавлено: 13 фев 2014 




Название: Дорога, дорога домой (На заднем сидении)
Оригинальное название: The Way Way Back
Год выпуска: 2013
Жанр: Драма, комедия
Режиссер: Нат Факсон, Джим Рэш
В ролях: Стив Карелл, Тони Коллетт, Эллисон Дженни, Анна-София Робб, Сэм Рокуэлл, Майя Рудольф, Лайам Джеймс, Роб Кордри, Аманда Пит, Ривер Агирр

О фильме: История подростка, который нашел в себе силы противостоять жестокому отчиму и снова обрел контакт с матерью. И все это благодаря дружбе, завязавшейся у героя однажды летом.



Страна: США
Студия: Odd Lot Entertainment, Sycamore Pictures, The Walsh Company, What Just Happened Productions
Продолжительность: 01:43:28
Перевод: Профессиональный двухголосый, любительский многоголосый, любительский одноголосый

Файл
Кодек: MPEG-4 AVC
Качество: BDRip-AVC
Видео: 2500 Кбит/с, 1024x552, 23.976 кадр/с
Аудио #1: Русский (AC3, 6 ch, 384 Кбит/с) / Профессиональный двухголосый
Аудио #2: Русский (AC3, 6 ch, 384 Кбит/с) / Любительский многоголосый
Аудио #3: Русский (AC3, 6 ch, 384 Кбит/с) / Любительский одноголосый
Аудио #4: Английский (AC3, 6 ch, 448 Кбит/с)
Субтитры: Русские

Семпл

Код:
Общее
Уникальный идентификатор                 : 173570697885720854960724475434028256947 (0x8294801DA9DF151491EB521916804EB3)
Полное имя                               : D:TorrentsDoroga.doroga.domoj.2013.x264.BDRip.(AVC)-MediaClub.mkv
Формат                                   : Matroska
Версия формата                           : Version 2
Размер файла                             : 2,96 Гбайт
Продолжительность                        : 1 ч. 43 м.
Общий поток                              : 4096 Кбит/сек
Название фильма                          : -=Released by Kortec for MediaClub=-
Дата кодирования                         : UTC 2014-02-11 17:48:07
Программа кодирования                    : mkvmerge v4.0.0 ('The Stars were mine') сборка от Jun  6 2010 16:18:42
Библиотека кодирования                   : libebml v1.0.0 + libmatroska v1.0.0

Видео
Идентификатор                            : 1
Формат                                   : AVC
Формат/Информация                        : Advanced Video Codec
Профиль формата                          : High@L4.1
Параметр CABAC формата                   : Да
Параметр ReFrames формата                : 9 кадров
Идентификатор кодека                     : V_MPEG4/ISO/AVC
Продолжительность                        : 1 ч. 43 м.
Битрейт                                  : 2500 Кбит/сек
Ширина                                   : 1024 пикселя
Высота                                   : 552 пикселя
Соотношение сторон                       : 1,85:1
Режим частоты кадров                     : Постоянный
Частота кадров                           : 23,976 кадра/сек
Цветовое пространство                    : YUV
Субдискретизация насыщенности            : 4:2:0
Битовая глубина                          : 8 бит
Тип развёртки                            : Прогрессивная
Бит/(Пиксели*Кадры)                      : 0.184
Размер потока                            : 1,75 Гбайт (59%)
Библиотека кодирования                   : x264 core 130 r2273 b3065e6
Настройки программы                      : cabac=1 / ref=9 / deblock=1:-2:-2 / analyse=0x3:0x133 / me=umh / subme=11 / psy=1 / psy_rd=1.00:0.10 / mixed_ref=1 / me_range=32 / chroma_me=1 / trellis=2 / 8x8dct=1 / cqm=0 / deadzone=21,11 / fast_pskip=0 / chroma_qp_offset=-3 / threads=6 / lookahead_threads=1 / sliced_threads=0 / nr=0 / decimate=0 / interlaced=0 / bluray_compat=0 / constrained_intra=0 / bframes=7 / b_pyramid=2 / b_adapt=2 / b_bias=0 / direct=3 / weightb=1 / open_gop=0 / weightp=2 / keyint=240 / keyint_min=23 / scenecut=40 / intra_refresh=0 / rc=2pass / mbtree=0 / bitrate=2500 / ratetol=1.0 / qcomp=0.60 / qpmin=0 / qpmax=69 / qpstep=4 / cplxblur=20.0 / qblur=0.5 / ip_ratio=1.40 / pb_ratio=1.30 / aq=1:0.80
Язык                                     : English
Default                                  : Нет
Forced                                   : Нет

Аудио #1
Идентификатор                            : 2
Формат                                   : AC-3
Формат/Информация                        : Audio Coding 3
Расширение режима                        : CM (complete main)
Параметр Endianness формата              : Big
Идентификатор кодека                     : A_AC3
Продолжительность                        : 1 ч. 43 м.
Вид битрейта                             : Постоянный
Битрейт                                  : 384 Кбит/сек
Каналы                                   : 6 каналов
Расположение каналов                     : Front: L C R, Side: L R, LFE
Частота                                  : 48,0 КГц
Битовая глубина                          : 16 бит
Метод сжатия                             : С потерями
Размер потока                            : 284 Мбайт (9%)
Заголовок                                : DVO (Ozz)
Язык                                     : Russian
Default                                  : Да
Forced                                   : Да

Аудио #2
Идентификатор                            : 3
Формат                                   : AC-3
Формат/Информация                        : Audio Coding 3
Расширение режима                        : CM (complete main)
Параметр Endianness формата              : Big
Идентификатор кодека                     : A_AC3
Продолжительность                        : 1 ч. 43 м.
Вид битрейта                             : Постоянный
Битрейт                                  : 384 Кбит/сек
Каналы                                   : 6 каналов
Расположение каналов                     : Front: L C R, Side: L R, LFE
Частота                                  : 48,0 КГц
Битовая глубина                          : 16 бит
Метод сжатия                             : С потерями
Размер потока                            : 284 Мбайт (9%)
Заголовок                                : MVO
Язык                                     : Russian
Default                                  : Нет
Forced                                   : Нет

Аудио #3
Идентификатор                            : 4
Формат                                   : AC-3
Формат/Информация                        : Audio Coding 3
Расширение режима                        : CM (complete main)
Параметр Endianness формата              : Big
Идентификатор кодека                     : A_AC3
Продолжительность                        : 1 ч. 43 м.
Вид битрейта                             : Постоянный
Битрейт                                  : 384 Кбит/сек
Каналы                                   : 6 каналов
Расположение каналов                     : Front: L C R, Side: L R, LFE
Частота                                  : 48,0 КГц
Битовая глубина                          : 16 бит
Метод сжатия                             : С потерями
Размер потока                            : 284 Мбайт (9%)
Заголовок                                : VO (Andi)
Язык                                     : Russian
Default                                  : Нет
Forced                                   : Нет

Аудио #4
Идентификатор                            : 5
Формат                                   : AC-3
Формат/Информация                        : Audio Coding 3
Расширение режима                        : CM (complete main)
Параметр Endianness формата              : Big
Идентификатор кодека                     : A_AC3
Продолжительность                        : 1 ч. 43 м.
Вид битрейта                             : Постоянный
Битрейт                                  : 448 Кбит/сек
Каналы                                   : 6 каналов
Расположение каналов                     : Front: L C R, Side: L R, LFE
Частота                                  : 48,0 КГц
Битовая глубина                          : 16 бит
Метод сжатия                             : С потерями
Размер потока                            : 332 Мбайт (11%)
Язык                                     : English
Default                                  : Нет
Forced                                   : Нет

Текст
Идентификатор                            : 6
Формат                                   : UTF-8
Идентификатор кодека                     : S_TEXT/UTF8
Идентификатор кодека/Информация          : UTF-8 Plain Text
Заголовок                                : qsaka, Leshii
Язык                                     : Russian
Default                                  : Нет
Forced                                   : Нет





Релиз от: |

Перевод: qsaka и Leshii (Notabenoid)
Озвучивание:
Аудио #1: Ozz (И. Воронова и А. Серегин)
Аудио #2: И. Грачева, А. Шухарт, М. Максимов
Аудио #3: Andi
За профессиональный двухголосый перевод Ozz большая благодарность сервису "Озучивание" на HDClub
Рип: Kortec
Релиз-группа: MediaClub



   Похожие торренты   Торрент   Размер 
В этой теме нет новых непрочитанных сообщений. Дорога, дорога домой / На заднем сидении / The Way Way Back (2013) BDRip от ExKinoRay | P2, L, L1

110 | 49

2.35 ГБ

В этой теме нет новых непрочитанных сообщений. На заднем сидении / Дорога, дорога домой / The Way Way Back (2013) BDRip 720p от Leonardo and Scarabey | P

33 | 4

3.45 ГБ

В этой теме нет новых непрочитанных сообщений. Дорога, дорога домой / The Way Way Back (2013) BDRip 1080p от CINEMANIA | L, L1

0 | 2

15.27 ГБ

В этой теме нет новых непрочитанных сообщений. Дорога, дорога домой / The Way Way Back (2013) BDRip 720p от CINEMANIA | L, L1

0 | 2

7.8 ГБ

В этой теме нет новых непрочитанных сообщений. Дорога, дорога домой / The Way Way Back (2013) BDRip 1080p от CINEMANIA | P2, L, L1

0 | 142

16.36 ГБ

В этой теме нет новых непрочитанных сообщений. Дорога, дорога домой / The Way Way Back (2013) BDRip 720p от CINEMANIA | P2, L, L1

25 | 103

9.52 ГБ

В этой теме нет новых непрочитанных сообщений. Дорога, дорога домой / The Way Way Back (2013) BDRemux 1080p от NovaLan

23 | 31

26.23 ГБ




Вы не можете начинать темы
Вы не можете отвечать на сообщения
Вы не можете редактировать свои сообщения
Вы не можете удалять свои сообщения
Вы не можете добавлять вложения

Перейти:  
 Вход
ppkBB3cker v.2 © 2008-2014 @ PPK
[ Time : 0.033s | 16 Queries | GZIP : Off ]

cron