img image001 image001 image001 image001 image001 image001 image001 image001 image001 image001 image001 image001 image001 image001 image001 image001

Planets Sun Sun Sun
Статистика раздачи
Автор: PriZraK | Размер: 8.19 ГБ | Добавлен: 13 фев 2014
Раздают: 61    Качают: 15
Скачать торрент
Скачать торрент
Описание торрента

СообщениеДобавлено: 13 фев 2014 


#77

Информация о фильме
Название: Как я теперь живу / Как я теперь люблю
Оригинальное название: How I Live Now
Год выхода: 2013
Жанр: фэнтези, драма, приключения
Режиссер: Кевин МакДональд
В ролях: Сирша Ронан, Джордж МакКэй, Том Холлэнд, Харли Бёрд, Анна Чэнселлор, Сара Барнетт, Эми Доусон, Кори Джонсон, Наташа Йонас, Дэнни МакЭвой

О фильме:
Пятнадцатилетняя американка Дэйзи, живущая в Нью-Йорке образца недалекого будущего, почти ничем не отличалась от своих сверстников, если не считать небольшого обсессивно-компульсивного расстройства и связанной с ним привередливостью в еде. Во время очередных летних каникул Дэйзи отправилась в Англию, чтобы сменить обстановку и провести несколько недель в гостях у дяди и тети.

По другую сторону Атлантики ее ждала влюбленность в кузена Эдмонда, прогулки по зеленой Англии и... начало Третьей Мировой Войны. Боевые действия, начавшиеся без видимых на то причин, полностью изменили жизнь Дэйзи и ее близких, столкнувшихся не только с постоянным страхом гибели, но и с другими неприятными признаками войны – мародерством и беззаконием. Прячась от атак с воздуха и делая все возможное, чтобы уцелеть, Дэйзи и другие ее ровесники вынуждены были повзрослеть и измениться – стать сильнее телом и духом, а также пересмотреть свое отношение к самой жизни.



Выпущено: Великобритания
Продолжительность: 01:41:12
Озвучивание: Любительское (одноголосое) [А.Матвеев]

Файл
Формат: MKV
Качество: BDRip 1080p [CHD]
Видео: 9699 kb/s, 1920x1040
Аудио: Russian: AC3, 384 kb/s (6 ch) / English: DTS, 1510 kb/s (6 ch)
Субтитры: Russian [notabenoid], English
Дополнительно: Сохранены оригинальные чаптеры как на Blu-ray
Размер: 8.19 Gb
Скачать: Сэмпл

Релиз группы:




Общее
How.I.Live.Now.2013.Blu.Ray.1080p.CINEMANIA.mkv
Формат : Matroska
Версия формата : Version 4 / Version 2
Размер файла : 8,19 Гбайт
Продолжительность : 1 ч. 41 м.
Общий поток : 11,6 Мбит/сек
Название фильма : Release Group CINEMANIA
Дата кодирования : UTC 2014-02-06 13:39:43
Программа кодирования : mkvmerge v6.7.0 ('Back to the Ground') 64bit built on Jan 8 2014 15:10:52
Библиотека кодирования : libebml v1.3.0 + libmatroska v1.4.1

Видео
Идентификатор : 1
Формат : AVC
Формат/Информация : Advanced Video Codec
Профиль формата : High@L4.1
Параметр CABAC формата : Да
Параметр ReFrames формата : 4 кадра
Идентификатор кодека : V_MPEG4/ISO/AVC
Продолжительность : 1 ч. 41 м.
Битрейт : 9699 Кбит/сек
Ширина : 1920 пикселей
Высота : 1040 пикселей
Соотношение сторон : 1,85:1
Режим частоты кадров : Постоянный
Частота кадров : 23,976 кадра/сек
Цветовое пространство : YUV
Субдискретизация насыщенности : 4:2:0
Битовая глубина : 8 бит
Тип развёртки : Прогрессивная
Бит/(Пиксели*Кадры) : 0.203
Размер потока : 6,69 Гбайт (82%)
Заголовок : Release Group CINEMANIA
Библиотека кодирования : x264 core 138 r2356 a1d3d17
Настройки программы : cabac=1 / ref=4 / deblock=1:-3:-3 / analyse=0x3:0x113 / me=umh / subme=10 / psy=1 / psy_rd=1.00:0.05 / mixed_ref=1 / me_range=32 / chroma_me=1 / trellis=2 / 8x8dct=1 / cqm=0 / deadzone=21,11 / fast_pskip=0 / chroma_qp_offset=-2 / threads=18 / lookahead_threads=1 / sliced_threads=0 / nr=0 / decimate=1 / interlaced=0 / bluray_compat=0 / constrained_intra=0 / bframes=6 / b_pyramid=2 / b_adapt=2 / b_bias=0 / direct=3 / weightb=1 / open_gop=0 / weightp=2 / keyint=250 / keyint_min=23 / scenecut=40 / intra_refresh=0 / rc=2pass / mbtree=0 / bitrate=9699 / ratetol=1.0 / qcomp=0.70 / qpmin=0 / qpmax=69 / qpstep=4 / cplxblur=20.0 / qblur=0.5 / ip_ratio=1.40 / pb_ratio=1.30 / aq=2:0.90
Язык : English
Default : Да
Forced : Нет

Аудио #1
Идентификатор : 2
Формат : AC-3
Формат/Информация : Audio Coding 3
Расширение режима : CM (complete main)
Параметр Endianness формата : Big
Идентификатор кодека : A_AC3
Продолжительность : 1 ч. 41 м.
Вид битрейта : Постоянный
Битрейт : 384 Кбит/сек
Каналы : 6 каналов
Расположение каналов : Front: L C R, Side: L R, LFE
Частота : 48,0 КГц
Битовая глубина : 16 бит
Метод сжатия : С потерями
Размер потока : 278 Мбайт (3%)
Заголовок : А. Матвеев
Язык : Russian
Default : Да
Forced : Да

Аудио #2
Идентификатор : 3
Формат : DTS
Формат/Информация : Digital Theater Systems
Режим : 16
Параметр Endianness формата : Big
Идентификатор кодека : A_DTS
Продолжительность : 1 ч. 41 м.
Вид битрейта : Постоянный
Битрейт : 1509 Кбит/сек
Каналы : 6 каналов
Расположение каналов : Front: L C R, Side: L R, LFE
Частота : 48,0 КГц
Битовая глубина : 24 бит
Метод сжатия : С потерями
Размер потока : 1,07 Гбайт (13%)
Язык : English
Default : Нет
Forced : Нет

Текст #1
Идентификатор : 4
Формат : UTF-8
Идентификатор кодека : S_TEXT/UTF8
Идентификатор кодека/Информация : UTF-8 Plain Text
Заголовок : notabenoid
Язык : Russian
Default : Нет
Forced : Нет

Текст #2
Идентификатор : 5
Формат : UTF-8
Идентификатор кодека : S_TEXT/UTF8
Идентификатор кодека/Информация : UTF-8 Plain Text
Язык : English
Default : Нет
Forced : Нет

Меню
00:00:00.000 : en:00:00:00.000
00:09:35.784 : en:00:09:35.784
00:15:08.991 : en:00:15:08.991
00:23:33.412 : en:00:23:33.412
00:34:03.959 : en:00:34:03.959
00:39:59.731 : en:00:39:59.731
00:49:25.504 : en:00:49:25.504
00:57:39.539 : en:00:57:39.539
01:03:09.953 : en:01:03:09.953
01:13:23.566 : en:01:13:23.566
01:25:49.311 : en:01:25:49.311
01:38:27.401 : en:01:38:27.401



   Похожие торренты   Торрент   Размер 
В этой теме нет новых непрочитанных сообщений. Как я теперь живу / Как я теперь люблю / How I Live Now (2013) BDRip 720p от CINEMANIA | А.Матвеев

160 | 11

5.42 ГБ

В этой теме нет новых непрочитанных сообщений. Как я теперь живу / Как я теперь люблю / How I Live Now (2013) BDRip 1080p от CINEMANIA | P, A

195 | 101

8.47 ГБ

В этой теме нет новых непрочитанных сообщений. Как я теперь люблю / Как я теперь живу / How I Live Now (2013) BDRip-AVC от potroks | А.Матвеев

3 | 2

1.46 ГБ

В этой теме нет новых непрочитанных сообщений. Как я теперь люблю / Как я теперь живу / How I Live Now (2013) BDRip-AVC от R.G.TorrBy | А. Матвеев

2 | 2

2.9 ГБ

В этой теме нет новых непрочитанных сообщений. Как я теперь люблю / Как я теперь живу / How I Live Now (2013) BDRip-AVC от Leonardo and Scarabey | А.Матвеев

0 | 1

2.18 ГБ

В этой теме нет новых непрочитанных сообщений. Как я теперь люблю / Как я теперь живу / How I Live Now (2013) BDRip 720p от Leonardo and Scarabey | А.Матвеев

0 | 3

3.72 ГБ

В этой теме нет новых непрочитанных сообщений. Как я теперь живу / Как я теперь люблю / How I Live Now (2013) HDRip от Scarabey | А.Матвеев

1 | 7

744.67 МБ




Вы не можете начинать темы
Вы не можете отвечать на сообщения
Вы не можете редактировать свои сообщения
Вы не можете удалять свои сообщения
Вы не можете добавлять вложения

Перейти:  
 Вход
ppkBB3cker v.2 © 2008-2014 @ PPK
[ Time : 1.335s | 15 Queries | GZIP : Off ]

cron