img image001 image001 image001 image001 image001 image001 image001 image001 image001 image001 image001 image001 image001 image001 image001 image001

Planets Sun Sun Sun
Статистика раздачи
Автор: PriZraK | Размер: 7.75 ГБ | Добавлен: 13 фев 2014
Раздают: 66    Качают: 7
Скачать торрент
Скачать торрент
Описание торрента

СообщениеДобавлено: 13 фев 2014 




Информация о фильме
Название: Черная орхидея
Оригинальное название: The Black Dahlia
Год выхода: 2006
Жанр: триллер, мелодрама, драма, криминал, детектив, история
Режиссер: Брайан Де Пальма
В ролях: Джош Хартнетт, Скарлетт Йоханссон, Аарон Экхарт, Хилари Суэнк, Миа Киршнер, Майк Старр, Фиона Шоу, Патрик Фишлер, Джеймс Отис, Джон Кэвэна

О фильме:
Конец 40-х годов. Двое полицейских расследуют жестокое убийство голливудской старлетки, разрезанный пополам труп которой найден на заброшенном пустыре. По мере того, как давление со стороны политиков усиливается, напарники обнаруживают, что слишком многие известные люди замешаны в этом деле.

Различные нити расследования приводят их в одну из самых влиятельных семей Нью-Йорка, в сердце полицейского департамента Лос-Анджелеса и даже к собственным возлюбленным.



Выпущено: США, Германия
Студия: Universal Pictures
Продолжительность: 02:00:55
Перевод: Дублированный (лицензия) + Профессиональный двухголосый закадровый + Оригинал

Файл
Кодек: x264
Качество: BDRip (источник: Blu-ray Disc)
Видео: 1920x814 (2,35:1), 23.976 fps, 7457 kbps
Аудио #1: AC-3, 6 ch, 448 kbps (Rus) Дубляж, R5
Аудио #2: AC-3, 6 ch, 640 kbps (Rus) Двухголосый закадровый, П.Гланц и И.Королёва
Аудио #3: AC-3, 6 ch, 640 kbps (Eng) Оригинал
Субтитры: Русские, Английские

Общее
Уникальный идентификатор : 207267517617289886541390193512317097215 (0x9BEE459920B74DB0893A39E7046694FF)
Полное имя : F:The.Black.Dahlia.2006.BDRip.1080p.Rus.Eng.mkv
Формат : Matroska
Версия формата : Version 2
Размер файла : 7,75 Гбайт
Продолжительность : 2 ч. 0 м.
Общий поток : 9179 Кбит/сек
Название фильма : Черная орхидея / The Black Dahlia (2006)
Дата кодирования : UTC 2014-01-04 15:47:20
Программа кодирования : mkvmerge v5.8.0 ('No Sleep / Pillow') built on Sep 2 2012 15:37:04
Библиотека кодирования : libebml v1.2.3 + libmatroska v1.3.0
Attachment : Yes

Видео
Идентификатор : 1
Формат : AVC
Формат/Информация : Advanced Video Codec
Профиль формата : High@L4.1
Параметр CABAC формата : Да
Параметр ReFrames формата : 5 кадров
Идентификатор кодека : V_MPEG4/ISO/AVC
Продолжительность : 2 ч. 0 м.
Битрейт : 7457 Кбит/сек
Ширина : 1920 пикселей
Высота : 814 пикселей
Соотношение сторон : 2,35:1
Режим частоты кадров : Постоянный
Частота кадров : 23,976 кадра/сек
Цветовое пространство : YUV
Субдискретизация насыщенности : 4:2:0
Битовая глубина : 8 бит
Тип развёртки : Прогрессивная
Бит/(Пиксели*Кадры) : 0.199
Размер потока : 6,14 Гбайт (79%)
Заголовок : Release by N1NT3NDO
Библиотека кодирования : x264 core 140 r2377 1ca7bb9
Настройки программы : cabac=1 / ref=5 / deblock=1:-3:-3 / analyse=0x3:0x133 / me=umh / subme=11 / psy=1 / psy_rd=1.00:0.00 / mixed_ref=1 / me_range=32 / chroma_me=1 / trellis=2 / 8x8dct=1 / cqm=0 / deadzone=21,11 / fast_pskip=0 / chroma_qp_offset=-2 / threads=12 / lookahead_threads=1 / sliced_threads=0 / nr=0 / decimate=0 / interlaced=0 / bluray_compat=0 / constrained_intra=0 / bframes=6 / b_pyramid=2 / b_adapt=2 / b_bias=0 / direct=3 / weightb=1 / open_gop=0 / weightp=2 / keyint=240 / keyint_min=23 / scenecut=40 / intra_refresh=0 / rc=2pass / mbtree=0 / bitrate=7457 / ratetol=1.0 / qcomp=0.60 / qpmin=0 / qpmax=69 / qpstep=4 / cplxblur=20.0 / qblur=0.5 / ip_ratio=1.40 / pb_ratio=1.30 / aq=1:1.00
Язык : English
Default : Да
Forced : Нет

Аудио #1
Идентификатор : 2
Формат : AC-3
Формат/Информация : Audio Coding 3
Расширение режима : CM (complete main)
Параметр Endianness формата : Big
Идентификатор кодека : A_AC3
Продолжительность : 2 ч. 0 м.
Вид битрейта : Постоянный
Битрейт : 448 Кбит/сек
Каналы : 6 каналов
Расположение каналов : Front: L C R, Side: L R, LFE
Частота : 48,0 КГц
Битовая глубина : 16 бит
Метод сжатия : С потерями
Размер потока : 387 Мбайт (5%)
Заголовок : Дубляж, R5
Язык : Russian
Default : Да
Forced : Нет

Аудио #2
Идентификатор : 3
Формат : AC-3
Формат/Информация : Audio Coding 3
Расширение режима : CM (complete main)
Параметр Endianness формата : Big
Идентификатор кодека : A_AC3
Продолжительность : 2 ч. 0 м.
Вид битрейта : Постоянный
Битрейт : 640 Кбит/сек
Каналы : 6 каналов
Расположение каналов : Front: L C R, Side: L R, LFE
Частота : 48,0 КГц
Битовая глубина : 16 бит
Метод сжатия : С потерями
Размер потока : 554 Мбайт (7%)
Заголовок : Двухголосый закадровый, П.Гланц и И.Королёва
Язык : Russian
Default : Нет
Forced : Нет

Аудио #3
Идентификатор : 4
Формат : AC-3
Формат/Информация : Audio Coding 3
Расширение режима : CM (complete main)
Параметр Endianness формата : Big
Идентификатор кодека : A_AC3
Продолжительность : 2 ч. 0 м.
Вид битрейта : Постоянный
Битрейт : 640 Кбит/сек
Каналы : 6 каналов
Расположение каналов : Front: L C R, Side: L R, LFE
Частота : 48,0 КГц
Битовая глубина : 16 бит
Метод сжатия : С потерями
Размер потока : 554 Мбайт (7%)
Заголовок : English
Язык : English
Default : Нет
Forced : Нет

Текст #1
Идентификатор : 5
Формат : UTF-8
Идентификатор кодека : S_TEXT/UTF8
Идентификатор кодека/Информация : UTF-8 Plain Text
Заголовок : Russian
Язык : Russian
Default : Нет
Forced : Нет

Текст #2
Идентификатор : 6
Формат : UTF-8
Идентификатор кодека : S_TEXT/UTF8
Идентификатор кодека/Информация : UTF-8 Plain Text
Заголовок : English
Язык : English
Default : Нет
Forced : Нет

Меню
00:00:00.000 : :Chapter 01
00:03:52.481 : :Chapter 02
00:06:19.294 : :Chapter 03
00:09:17.847 : :Chapter 04
00:12:48.601 : :Chapter 05
00:16:56.390 : :Chapter 06
00:19:40.387 : :Chapter 07
00:24:58.914 : :Chapter 08
00:31:18.001 : :Chapter 09
00:35:03.476 : :Chapter 10
00:37:41.132 : :Chapter 11
00:41:26.817 : :Chapter 12
00:44:04.725 : :Chapter 13
00:48:53.764 : :Chapter 14
00:53:18.904 : :Chapter 15
00:59:54.215 : :Chapter 16
01:05:22.960 : :Chapter 17
01:10:05.868 : :Chapter 18
01:14:49.359 : :Chapter 19
01:21:12.492 : :Chapter 20
01:25:43.680 : :Chapter 21
01:28:24.048 : :Chapter 22
01:31:03.374 : :Chapter 23
01:35:26.345 : :Chapter 24
01:37:11.408 : :Chapter 25
01:39:30.923 : :Chapter 26
01:44:14.414 : :Chapter 27
01:50:10.145 : :Chapter 28
01:55:24.834 : :Chapter 29
01:57:08.020 : :Chapter 30



   Похожие торренты   Торрент   Размер 
В этой теме нет новых непрочитанных сообщений. Черная орхидея / The Black Dahlia (2006) BDRip | A

295 | 9

2.07 ГБ

В этой теме нет новых непрочитанных сообщений. Черная орхидея / The Black Dahlia (2006) BDRip от HQ-ViDEO | D

46 | 3

2.18 ГБ

В этой теме нет новых непрочитанных сообщений. Черная орхидея / The Black Dahlia (2006) BDRip 720p от HDClub | D, P2

123 | 29

7.83 ГБ

В этой теме нет новых непрочитанных сообщений. Чёрная сутана / Black robe (1991) BDRip 1080p by msltel | A

31 | 12

9.47 ГБ

В этой теме нет новых непрочитанных сообщений. Черная месса / Black Mass (2015) BDRip 1080p | Лицензия

991 | 49

7.76 ГБ

В этой теме нет новых непрочитанных сообщений. Черная Месса / Black Mass (2015) BDRip 1080p от ExKinoRay | Лицензия

482 | 40

11 ГБ

В этой теме нет новых непрочитанных сообщений. Черная месса / Black Mass (2015) BDRip 1080p | iTunes, Яроцкий

2222 | 196

12.8 ГБ




Вы не можете начинать темы
Вы не можете отвечать на сообщения
Вы не можете редактировать свои сообщения
Вы не можете удалять свои сообщения
Вы не можете добавлять вложения

Перейти:  
 Вход
ppkBB3cker v.2 © 2008-2014 @ PPK
[ Time : 0.037s | 16 Queries | GZIP : Off ]

cron