img image001 image001 image001 image001 image001 image001 image001 image001 image001 image001 image001 image001 image001 image001 image001 image001

Planets Sun Sun Sun
Статистика раздачи
Автор: PriZraK | Размер: 7.76 ГБ | Добавлен: 13 фев 2014
Раздают: 65    Качают: 3
Скачать торрент
Скачать торрент
Описание торрента

СообщениеДобавлено: 13 фев 2014 



Информация о фильме
    Русское название: 2001 год: Космическая одиссея
    Оригинальное название: 2001: A Space Odyssey
    Год выхода: 1968
    Жанр: Научная фантастика, приключения, драма
    Режиссер: Стэнли Кубрик
    Выпущено: США, Великобритания
    Продолжительность: 02:28:52
    Перевод: Дублированный, Профессиональный (многоголосый закадровый), Профессиональный (двухголосый закадровый), Авторский (А.Гаврилов)
    В ролях: Кир Дулли, Гари Локвуд, Уильям Сильвестр, Дэниэл Рихтер, Леонард Росситер, Роберт Битти, Шон Салливан, Дуглас Рэйн


Сюжет фильма
    "Космическая одиссея 2001 года" - плод совместного творчества известного британского кинорежиссера Стэнли Кубрика и не менее известного британского писателя-фантаста сэра Артура Кларка, несомненно, является лучшим англо-американским научно-фантастическим фильмом 20 века. Безукоризненное мастерство Кубрика и философская глубина идей Кларка позволили миру еще раз сквозь призму грандиозной масштабности сюжета и супер реалистичных спецэфектов, не перестающих поражать своим техническим совершенством даже сейчас, задать себе "главный" вопрос - "Кто мы, зачем и как мы появились на этом, затерянном во Вселенной, маленьком голубом шарике?" Всем, кто хоть раз в жизни, в ночной тиши обращал свой взор к звездам и задавал себе подобный вопрос, следует обязательно посмотреть эту картину.


Файл
    Качество: BDRip 720p (исходник Blu-ray Remux)
    Видео: 1280x576, 5733 Кбит/сек, 23,976 кадр/сек, AVC, x264, High@L4.1, 2.222, 0.324 Бит/[Пиксели*Кадры], 2pass
    Аудио 1: AC-3, 448 Кбит/сек, 6 канала(ов), 48,0 КГц - Многоголосый закадровый, Киномания/ Русский
    Аудио 2: AC-3, 256 Кбит/сек, 2 канала(ов), 48,0 КГц - Дублированный, Варус Видео / Русский
    Аудио 3: AC-3, 192 Кбит/сек, 2 канала(ов), 48,0 КГц - Двухголосый закадровый, НТВ+/ Русский
    Аудио 4: AC-3, 384 Кбит/сек, 6 канала(ов), 48,0 КГц - Одноголосый закадровый, А.Гаврилов / Русский
    Аудио 5: AC-3, 448 Кбит/сек, 6 канала(ов), 48,0 КГц - Оригинал / Английский
    Субтитры: Русские | Полные, Английские | Полные
    Чаптеры (Главы): Есть



Автор Рипа: Сообщество:



Format : Matroska
Format version : Version 2
File size : 7.76 GiB
Duration : 2h 28mn
Overall bit rate : 7 459 Kbps
Movie name : 2001 год: Космическая одиссея.(1968).BDRip.720p.[envy]
Encoded date : UTC 2014-01-12 07:10:21
Writing application : mkvmerge v5.8.0 ('No Sleep / Pillow') built on Sep 2 2012 15:37:04
Writing library : libebml v1.2.3 + libmatroska v1.3.0

Video
ID : 1
Format : AVC
Format/Info : Advanced Video Codec
Format profile : High@L4.1
Format settings, CABAC : Yes
Format settings, ReFrames : 10 frames
Codec ID : V_MPEG4/ISO/AVC
Duration : 2h 28mn
Bit rate : 5 733 Kbps
Width : 1 280 pixels
Height : 576 pixels
Display aspect ratio : 2.222
Frame rate mode : Constant
Frame rate : 23.976 fps
Color space : YUV
Chroma subsampling : 4:2:0
Bit depth : 8 bits
Scan type : Progressive
Bits/(Pixel*Frame) : 0.324
Stream size : 5.80 GiB (75%)
Title : 2001 год: Космическая одиссея.(1968).BDRip.720p.[envy]
Writing library : x264 core 140 r2377 1ca7bb9
Encoding settings : cabac=1 / ref=10 / deblock=1:-3:-2 / analyse=0x3:0x133 / me=umh / subme=11 / psy=1 / psy_rd=1.00:0.00 / mixed_ref=1 / me_range=48 / chroma_me=1 / trellis=2 / 8x8dct=1 / cqm=0 / deadzone=21,11 / fast_pskip=0 / chroma_qp_offset=-2 / threads=12 / lookahead_threads=1 / sliced_threads=0 / nr=0 / decimate=1 / interlaced=0 / bluray_compat=0 / constrained_intra=0 / bframes=6 / b_pyramid=2 / b_adapt=2 / b_bias=0 / direct=3 / weightb=1 / open_gop=0 / weightp=2 / keyint=240 / keyint_min=23 / scenecut=40 / intra_refresh=0 / rc=2pass / mbtree=0 / bitrate=5733 / ratetol=2.0 / qcomp=0.60 / qpmin=0 / qpmax=69 / qpstep=4 / cplxblur=20.0 / qblur=0.5 / ip_ratio=1.40 / pb_ratio=1.30 / aq=1:0.90
Language : English
Default : Yes
Forced : No

Audio #1
ID : 2
Format : AC-3
Format/Info : Audio Coding 3
Mode extension : CM (complete main)
Format settings, Endianness : Big
Codec ID : A_AC3
Duration : 2h 28mn
Bit rate mode : Constant
Bit rate : 448 Kbps
Channel count : 6 channels
Channel positions : Front: L C R, Side: L R, LFE
Sampling rate : 48.0 KHz
Bit depth : 16 bits
Compression mode : Lossy
Stream size : 477 MiB (6%)
Title : Kinomanija
Language : Russian
Default : Yes
Forced : No

Audio #2
ID : 3
Format : AC-3
Format/Info : Audio Coding 3
Mode extension : CM (complete main)
Format settings, Endianness : Big
Codec ID : A_AC3
Duration : 2h 28mn
Bit rate mode : Constant
Bit rate : 256 Kbps
Channel count : 2 channels
Channel positions : Front: L R
Sampling rate : 48.0 KHz
Bit depth : 16 bits
Compression mode : Lossy
Stream size : 273 MiB (3%)
Title : Dub
Language : Russian
Default : No
Forced : No

Audio #3
ID : 4
Format : AC-3
Format/Info : Audio Coding 3
Mode extension : CM (complete main)
Format settings, Endianness : Big
Codec ID : A_AC3
Duration : 2h 28mn
Bit rate mode : Constant
Bit rate : 192 Kbps
Channel count : 2 channels
Channel positions : Front: L R
Sampling rate : 48.0 KHz
Bit depth : 16 bits
Compression mode : Lossy
Stream size : 204 MiB (3%)
Title : НТВ+
Language : Russian
Default : No
Forced : No

Audio #4
ID : 5
Format : AC-3
Format/Info : Audio Coding 3
Mode extension : CM (complete main)
Format settings, Endianness : Big
Codec ID : A_AC3
Duration : 2h 28mn
Bit rate mode : Constant
Bit rate : 384 Kbps
Channel count : 6 channels
Channel positions : Front: L C R, Side: L R, LFE
Sampling rate : 48.0 KHz
Bit depth : 16 bits
Compression mode : Lossy
Stream size : 409 MiB (5%)
Title : Gavrilov
Language : Russian
Default : No
Forced : No

Audio #5
ID : 6
Format : AC-3
Format/Info : Audio Coding 3
Mode extension : CM (complete main)
Format settings, Endianness : Big
Codec ID : A_AC3
Duration : 2h 28mn
Bit rate mode : Constant
Bit rate : 448 Kbps
Channel count : 6 channels
Channel positions : Front: L C R, Side: L R, LFE
Sampling rate : 48.0 KHz
Bit depth : 16 bits
Compression mode : Lossy
Stream size : 477 MiB (6%)
Title : Eng
Language : English
Default : No
Forced : No

Text #1
ID : 7
Format : UTF-8
Codec ID : S_TEXT/UTF8
Codec ID/Info : UTF-8 Plain Text
Title : rus full
Language : Russian
Default : No
Forced : No

Text #2
ID : 8
Format : UTF-8
Codec ID : S_TEXT/UTF8
Codec ID/Info : UTF-8 Plain Text
Title : eng full
Language : English
Default : No
Forced : No

Menu
00:00:00.000 : :Chapter 01
00:05:00.000 : :Chapter 02
00:10:00.000 : :Chapter 03
00:15:00.000 : :Chapter 04
00:25:00.000 : :Chapter 05
00:35:00.000 : :Chapter 06
00:45:00.000 : :Chapter 07
00:55:00.000 : :Chapter 08
01:05:00.000 : :Chapter 09
01:15:00.000 : :Chapter 10
01:25:00.000 : :Chapter 11
01:35:00.000 : :Chapter 12
01:45:00.000 : :Chapter 13
01:55:00.000 : :Chapter 14
02:05:00.000 : :Chapter 15
02:15:00.000 : :Chapter 16
02:20:00.000 : :Chapter 17


При поддержке:



   Похожие торренты   Торрент   Размер 
В этой теме нет новых непрочитанных сообщений. 2001 год: Космическая одиссея / 2001: A Space Odyssey (1968) BDRip 1080p | D, P, P2, A

124 | 20

11.58 ГБ

В этой теме нет новых непрочитанных сообщений. 2001 год: Космическая одиссея / 2001: A Space Odyssey (1968) BDRip от Deadmauvlad | D

448 | 36

1.45 ГБ

В этой теме нет новых непрочитанных сообщений. 2001 год: Космическая одиссея / 2001: A Space Odyssey (1968) HDRip-AVC | D

107 | 3

1.09 ГБ

В этой теме нет новых непрочитанных сообщений. 2199: Космическая одиссея / Space Battleship Yamato (2010) DVD9 от New-Team | D | Лицензия

24 | 7

7.04 ГБ

В этой теме нет новых непрочитанных сообщений. Американская одиссея / American Odyssey [s01] (2015) WEB-DL 720p | Jaskier

31 | 30

18.79 ГБ

В этой теме нет новых непрочитанных сообщений. Американская одиссея / American Odyssey [01x01-11 из 12] (2015) WEB-DL 720p | Jaskier

12 | 15

15.95 ГБ

В этой теме нет новых непрочитанных сообщений. Американская одиссея / American Odyssey [01x01-06 из 12] (2015) WEB-DL 720p | Jaskier

21 | 30

8.82 ГБ




Вы не можете начинать темы
Вы не можете отвечать на сообщения
Вы не можете редактировать свои сообщения
Вы не можете удалять свои сообщения
Вы не можете добавлять вложения

Перейти:  
 Вход
ppkBB3cker v.2 © 2008-2014 @ PPK
[ Time : 0.035s | 16 Queries | GZIP : Off ]

cron