img image001 image001 image001 image001 image001 image001 image001 image001 image001 image001 image001 image001 image001 image001 image001 image001

Planets Sun Sun Sun
Статистика раздачи
Автор: PriZraK | Размер: 9.69 ГБ | Добавлен: 13 фев 2014
Раздают: 0    Качают: 8
Скачать торрент
Скачать торрент
Описание торрента

СообщениеДобавлено: 13 фев 2014 




Название: Грязная игра
Оригинальное название: Play Dirty
Год выхода: 1969
Жанр: Драма, приключения, военный
Режиссер: Андре де Тот
В ролях: Майкл Кейн, Найджел Девенпорт, Найджел Грин, Гарри Эндрюс, Патрик Джордан, Дэниэл Пилон, Бернард Арчард, Энрике Авила, Такис Эммануель
О фильме:
Разгар Второй Мировой Войны. Северная Африка. Под командованием полковника английской армии Мастерса находится не совсем обычный отряд - все его члены бывшие убийцы и террористы, собранные по тюрьмам всего средиземноморья. Бригадный генерал Блор, в чьем подчинении находится Мастерс, хочет распустить отряд. Мастерс решает использовать последний шанс - операцию в глубоком тылу противника. Его подчиненные должны углубиться на территорию, контролируемую немцами, почти на 400 миль и уничтожить склад горючего, предназначенный для снабжения танковой армии Роммеля.


Страна: Великобритания, Lowndes Productions Limited
Продолжительность: 01:58:14
Перевод: Профессиональный многоголосый / Авторский одноголосый (Сергей Рябов)

Кодек: H.264
Качество: BDRip 1080p
Видео: MPEG-4 AVC, 9806 Кбит/с, 1920x816, 23.976 кадр/с
Звук: Русский (AC3, 2 ch, 192 Кбит/с), английский, французский (DTS, 2 ch, 755 Кбит/с)
Субтитры: Английские

Полное имя : E:Раздачи_EPlay.Dirty.1969.x264.BDRip.1080p.NovaLan.mkv
Формат : Matroska
Версия формата : Version 4 / Version 2
Размер файла : 9,69 Гбайт
Продолжительность : 1 ч. 58 м.
Общий поток : 11,7 Мбит/сек
Название фильма : Play Dirty 1969 - NovaLan
Дата кодирования : UTC 2013-12-09 20:05:34
Программа кодирования : mkvmerge v6.6.0 ('The Edge Of The In Between') built on Dec 1 2013 17:55:00
Библиотека кодирования : libebml v1.3.0 + libmatroska v1.4.1

Видео
Идентификатор : 1
Формат : AVC
Формат/Информация : Advanced Video Codec
Профиль формата : High@L4.1
Параметр CABAC формата : Да
Параметр ReFrames формата : 4 кадра
Идентификатор кодека : V_MPEG4/ISO/AVC
Продолжительность : 1 ч. 58 м.
Битрейт : 9806 Кбит/сек
Ширина : 1920 пикселей
Высота : 816 пикселей
Соотношение сторон : 2,35:1
Частота кадров : 23,976 кадра/сек
Цветовое пространство : YUV
Субдискретизация насыщенности : 4:2:0
Битовая глубина : 8 бит
Тип развёртки : Прогрессивная
Бит/(Пиксели*Кадры) : 0.261
Размер потока : 7,93 Гбайт (82%)
Заголовок : Sergei7721
Библиотека кодирования : x264 core 133 r2334 a3ac64b
Настройки программы : cabac=1 / ref=4 / deblock=1:-1:-1 / analyse=0x3:0x113 / me=umh / subme=10 / psy=1 / psy_rd=1.00:0.20 / mixed_ref=1 / me_range=32 / chroma_me=1 / trellis=2 / 8x8dct=1 / cqm=0 / deadzone=21,11 / fast_pskip=0 / chroma_qp_offset=-3 / threads=12 / lookahead_threads=1 / sliced_threads=0 / nr=0 / decimate=0 / interlaced=0 / bluray_compat=0 / constrained_intra=0 / bframes=6 / b_pyramid=2 / b_adapt=2 / b_bias=0 / direct=3 / weightb=1 / open_gop=0 / weightp=2 / keyint=240 / keyint_min=23 / scenecut=40 / intra_refresh=0 / rc_lookahead=40 / rc=2pass / mbtree=0 / bitrate=9806 / ratetol=1.0 / qcomp=0.60 / qpmin=0 / qpmax=69 / qpstep=4 / cplxblur=20.0 / qblur=0.5 / vbv_maxrate=50000 / vbv_bufsize=62500 / nal_hrd=none / ip_ratio=1.40 / pb_ratio=1.30 / aq=1:1.00
Язык : English
Default : Да
Forced : Нет

Аудио #1
Идентификатор : 2
Формат : AC-3
Формат/Информация : Audio Coding 3
Расширение режима : CM (complete main)
Параметр Endianness формата : Big
Идентификатор кодека : A_AC3
Продолжительность : 1 ч. 58 м.
Вид битрейта : Постоянный
Битрейт : 192 Кбит/сек
Каналы : 2 канала
Расположение каналов : Front: L R
Частота : 48,0 КГц
Битовая глубина : 16 бит
Метод сжатия : С потерями
Размер потока : 162 Мбайт (2%)
Язык : Russian
Default : Да
Forced : Нет

Аудио #2
Идентификатор : 3
Формат : AC-3
Формат/Информация : Audio Coding 3
Расширение режима : CM (complete main)
Параметр Endianness формата : Big
Идентификатор кодека : A_AC3
Продолжительность : 1 ч. 58 м.
Вид битрейта : Постоянный
Битрейт : 192 Кбит/сек
Каналы : 2 канала
Расположение каналов : Front: L R
Частота : 48,0 КГц
Битовая глубина : 16 бит
Метод сжатия : С потерями
Размер потока : 162 Мбайт (2%)
Язык : Russian
Default : Нет
Forced : Нет

Аудио #3
Идентификатор : 4
Формат : DTS
Формат/Информация : Digital Theater Systems
Идентификатор кодека : A_DTS
Продолжительность : 1 ч. 58 м.
Вид битрейта : Постоянный
Битрейт : 755 Кбит/сек
Каналы : 2 канала
Расположение каналов : Front: L R
Частота : 48,0 КГц
Битовая глубина : 16 бит
Метод сжатия : С потерями
Размер потока : 638 Мбайт (6%)
Язык : English
Default : Нет
Forced : Нет

Аудио #4
Идентификатор : 5
Формат : DTS
Формат/Информация : Digital Theater Systems
Идентификатор кодека : A_DTS
Продолжительность : 1 ч. 58 м.
Вид битрейта : Постоянный
Битрейт : 755 Кбит/сек
Каналы : 2 канала
Расположение каналов : Front: L R
Частота : 48,0 КГц
Битовая глубина : 16 бит
Метод сжатия : С потерями
Размер потока : 638 Мбайт (6%)
Язык : French
Default : Нет
Forced : Нет

Текст
Идентификатор : 6
Формат : UTF-8
Идентификатор кодека : S_TEXT/UTF8
Идентификатор кодека/Информация : UTF-8 Plain Text
Язык : English
Default : Нет
Forced : Нет

Меню
00:00:00.000 : en:00:00:00.000
00:11:01.660 : en:00:11:01.660
00:21:46.471 : en:00:21:46.471
00:29:11.332 : en:00:29:11.332
00:37:29.246 : en:00:37:29.246
00:46:27.409 : en:00:46:27.409
00:52:03.954 : en:00:52:03.954
00:59:47.208 : en:00:59:47.208
01:06:58.639 : en:01:06:58.639
01:16:26.957 : en:01:16:26.957
01:26:15.420 : en:01:26:15.420
01:39:29.046 : en:01:39:29.046

Релиз группы NovaLan
Автор релиза Sergei7721






Релиз от:



   Похожие торренты   Торрент   Размер 
В этой теме нет новых непрочитанных сообщений. Грязная игра / Play Dirty (1969) BDRip 720p от NovaLan

2 | 2

5.29 ГБ

В этой теме нет новых непрочитанных сообщений. Грязная игра / Play Dirty (1969) BDRip-AVC от E76 | P, A

17 | 6

3.86 ГБ

В этой теме нет новых непрочитанных сообщений. Грязная дюжина / The Dirty Dozen (1967) BDRip 1080p | P

24 | 28

12.9 ГБ

В этой теме нет новых непрочитанных сообщений. Грязная работа / Dirty Work (1998) BDRip 1080p by msltel

11 | 5

8.22 ГБ

В этой теме нет новых непрочитанных сообщений. Грязная работа / Dirty Work (1998) BDRip-AVC by msltel

274 | 18

2.19 ГБ

В этой теме нет новых непрочитанных сообщений. Грязная дюжина / The Dirty Dozen (1967) BDRip-AVC от Koenig

1 | 1

4.37 ГБ

В этой теме нет новых непрочитанных сообщений. Грязная работа / Dirty Work (1998) BDRip 720p by msltel

84 | 4

3.38 ГБ




Вы не можете начинать темы
Вы не можете отвечать на сообщения
Вы не можете редактировать свои сообщения
Вы не можете удалять свои сообщения
Вы не можете добавлять вложения

Перейти:  
 Вход
ppkBB3cker v.2 © 2008-2014 @ PPK
[ Time : 0.033s | 15 Queries | GZIP : Off ]

cron