img image001 image001 image001 image001 image001 image001 image001 image001 image001 image001 image001 image001 image001 image001 image001 image001

Planets Sun Sun Sun
Статистика раздачи
Автор: PriZraK | Размер: 2.75 ГБ | Добавлен: 13 фев 2014
Раздают: 1    Качают: 5
Скачать торрент
Скачать торрент
Описание торрента

СообщениеДобавлено: 13 фев 2014 




Информация о фильме
Название: Клеопатра
Оригинальное название: Cleopatra
Год выхода: 1934
Жанр: Драма, биография
Режиссер: Сесил Блаунт Де Милль
В ролях: Клодетт Колбер, Уоррен Уильям, Генри Уилкоксон, Джозеф Шилдкраут, Иэн Кит, Гертруда Майкл, С. Обри Смит, Ирвинг Пичел, Артур Хол, Эдвин Максвелл, Йен МакЛарен, Элинор Фелпс, Леонард Мьюди, Грэйс Даркин, Фердинанд Готтшалк, Клаудия Делл, Гарри Бересфорд, Джэйн Риган, Уильям Фарнум, Лайонел Бельмор, Флоренс Робертс, Филлипс Смолли

О фильме:
48 год до н. э. Клеопатра приветствует прибытие Юлия Цезаря, стараясь укрепить cвою власть в Египте под протекторатом Рима. Но Цезаря убивают, и она передает свою привязанность Марку Антонию, ослепляя его роскошью своего двора...



Страна: США, Paramount Pictures
Продолжительность: 01:41:21
Перевод: Профессиональный многоголосый
Дата релиза: 09.11.2013

Файл
Кодек: H.264
Качество: BDRip (AVC)
Видео: MPEG-4 AVC, 3500 Кбит/с, 784x576
Звук: Русский, английский (AC3, 2 ch, 192 Кбит/с)

Общее
Уникальный идентификатор : 239886804526656311746712213685046504551 (0xB478849C4FC3FAE18B1333C833266C67)
Полное имя : E:2Cleopatra.1934.x264.BDRip.(AVC).ExKinoRay.mkv
Формат : Matroska
Размер файла : 2,75 Гбайт
Продолжительность : 1 ч. 41 м.
Общий поток : 3885 Кбит/сек
Название фильма : Cleopatra.1934.x264.BDRip.(AVC).ExKinoRay
Дата кодирования : UTC 2013-12-09 18:50:14
Программа кодирования : mkvmerge v4.0.0 ('The Stars were mine') сборка от Jun 6 2010 16:18:42
Библиотека кодирования : libebml v1.0.0 + libmatroska v1.0.0

Видео
Идентификатор : 1
Формат : AVC
Формат/Информация : Advanced Video Codec
Профиль формата : High@L4.1
Параметр CABAC формата : Да
Параметр ReFrames формата : 8 кадров
Идентификатор кодека : V_MPEG4/ISO/AVC
Продолжительность : 1 ч. 41 м.
Битрейт : 3500 Кбит/сек
Ширина : 784 пикс.
Высота : 576 пикс.
Соотношение сторон : 4:3
Частота кадров : 23,976 кадр/сек
Цветовое пространство : YUV
Подвыборка цветности : 4:2:0
Битовая глубина : 8 бит
Тип развёртки : Прогрессивная
Бит/(Пиксели*Кадры) : 0.323
Размер потока : 2,42 Гбайт (88%)
Заголовок : Rip by Enigma-Vladislav71
Библиотека кодирования : x264 core 129 r2245 bc13772
Настройки программы : cabac=1 / ref=8 / deblock=1:-2:-2 / analyse=0x3:0x133 / me=umh / subme=11 / psy=1 / psy_rd=1.00:0.00 / mixed_ref=1 / me_range=48 / chroma_me=1 / trellis=2 / 8x8dct=1 / cqm=0 / deadzone=21,11 / fast_pskip=0 / chroma_qp_offset=-2 / threads=3 / lookahead_threads=1 / sliced_threads=0 / nr=0 / decimate=0 / interlaced=0 / bluray_compat=0 / constrained_intra=0 / bframes=8 / b_pyramid=2 / b_adapt=2 / b_bias=0 / direct=3 / weightb=1 / open_gop=0 / weightp=2 / keyint=240 / keyint_min=23 / scenecut=40 / intra_refresh=0 / rc=2pass / mbtree=0 / bitrate=3500 / ratetol=1.0 / qcomp=0.60 / qpmin=10 / qpmax=51 / qpstep=4 / cplxblur=20.0 / qblur=0.5 / ip_ratio=1.40 / pb_ratio=1.30 / aq=2:1.00
Язык : English

Аудио #1
Идентификатор : 2
Формат : AC-3
Формат/Информация : Audio Coding 3
Профиль формата : Dolby Digital
Расширение режима : CM (complete main)
Идентификатор кодека : A_AC3
Продолжительность : 1 ч. 41 м.
Вид битрейта : Постоянный
Битрейт : 192 Кбит/сек
Каналы : 2 канала
Расположение каналов : Front: L R
Частота : 48,0 КГц
Битовая глубина : 16 бит
Метод сжатия : С потерями
Размер потока : 139 Мбайт (5%)
Язык : Russian

Аудио #2
Идентификатор : 3
Формат : AC-3
Формат/Информация : Audio Coding 3
Расширение режима : CM (complete main)
Идентификатор кодека : A_AC3
Продолжительность : 1 ч. 41 м.
Вид битрейта : Постоянный
Битрейт : 192 Кбит/сек
Каналы : 2 канала
Расположение каналов : Front: L R
Частота : 48,0 КГц
Битовая глубина : 16 бит
Метод сжатия : С потерями
Размер потока : 139 Мбайт (5%)
Язык : English

Меню
00:00:00.000 : en:Chapter 01
00:02:47.167 : en:Chapter 02
00:06:42.150 : en:Chapter 03
00:15:17.541 : en:Chapter 04
00:20:34.523 : en:Chapter 05
00:26:22.706 : en:Chapter 06
00:29:41.196 : en:Chapter 07
00:41:44.752 : en:Chapter 08
01:02:54.520 : en:Chapter 09
01:11:14.144 : en:Chapter 10
01:23:23.247 : en:Chapter 11
01:27:19.984 : en:Chapter 12
01:33:40.156 : en:Chapter 13



Релиз от:

Авторы релиза:



   Похожие торренты   Торрент   Размер 
В этой теме нет новых непрочитанных сообщений. Клеопатра / Cleopatra (1934) BDRip 720p от ExKinoRay | P

0 | 4

7.36 ГБ

В этой теме нет новых непрочитанных сообщений. Клеопатра (2 серии из 2) / Cleopatra (Джозеф Лео Манкевич) [1963, драма, мелодрама, биография, история, BDRip-AVC] MVO

8 | 3

4.37 ГБ

В этой теме нет новых непрочитанных сообщений. Клеопатра / Cleopatra (1999) DVDRip-AVC | P, A

9 | 2

5.29 ГБ

В этой теме нет новых непрочитанных сообщений. Фараон и Клеопатра / Pharaoh and Cleopatra (1999) PC

2329 | 67

547.79 МБ

В этой теме нет новых непрочитанных сообщений. Клеопатра / Cleopatra (1963) DVDRip от MediaClub | КПК

248 | 11

1.1 ГБ

В этой теме нет новых непрочитанных сообщений. Клеопатра 2525 / Cleopatra 2525 [S01-02] (2000-2001) DVDRip | NovaFilm, Rey Gleeson

117 | 57

6.48 ГБ

В этой теме нет новых непрочитанных сообщений. Марш деревянных солдатиков / Babes in Toyland (1934) BDRip-AVC от ExKinoRay | P

30 | 19

1.62 ГБ




Вы не можете начинать темы
Вы не можете отвечать на сообщения
Вы не можете редактировать свои сообщения
Вы не можете удалять свои сообщения
Вы не можете добавлять вложения

Перейти:  
 Вход
ppkBB3cker v.2 © 2008-2014 @ PPK
[ Time : 0.028s | 17 Queries | GZIP : Off ]

cron