img image001 image001 image001 image001 image001 image001 image001 image001 image001 image001 image001 image001 image001 image001 image001 image001

Planets Sun Sun Sun
Статистика раздачи
Автор: PriZraK | Размер: 5 ГБ | Добавлен: 13 фев 2014
Раздают: 0    Качают: 6
Скачать торрент
Скачать торрент
Описание торрента

СообщениеДобавлено: 13 фев 2014 




Информация о фильме
Название: Красный холст
Оригинальное название: The Red Canvas
Год выхода: 2009
Жанр: Боевик, драма
Режиссер: Кеннет Чамитов, Адам Бостер
В ролях: Винг Реймз, Джордж Такей, Мария Кончита Алонсо, Жермен Андре, Риз Энджел, Марджи Бетке, Адам Бостер, Энтони Брашерс, Лиза Каннинг

О фильме:
Красный Холст — драма о безжалостном турнире боевых искусств. У Джонни Санчеза беспокойное прошлое. Это проявляется в разногласии между ним и его семьей. В то время когда Джонни освобождают из тюрьмы, школу его отца собираются закрыть. Единственный способ избежать этого — борьба на турнире Красного Холста, напоминающий «круг смерти», где зрители могут избивать борющиеся стороны, если они подходят слишком близко к краю. Джонни должен найти ответы на ошибки прошлого.


Страна: США
Студия: Beachwood Cottage Film and Music, Boster Castle, Boster Studios
Продолжительность: 01:36:46
Перевод: Профессиональный многоголосый (НТВ+)

Файл
Кодек: MPEG-4 AVC
Качество: HDTVRip 1080p
Видео: 6050 Кбит/с, 1920x962, 25.000 кадр/с
Звук:
Аудио #1: Русский (AC3, 6 ch, 448 Кбит/с)
Аудио #2: Английский (AC3, 6 ch, 448 Кбит/с)
Аудио #3: Немецкий (AC3, 6 ch, 448 Кбит/с)

Семпл


Общее
Полное имя : Krasnyj.xolst.2009.x264.HDTVRip(1080p).MediaClub.mkv
Формат : Matroska
Версия формата : Version 2
Размер файла : 5,00 Гбайт
Продолжительность : 1 ч. 36 м.
Общий поток : 7387 Кбит/сек
Дата кодирования : UTC 2013-11-28 20:34:01
Программа кодирования : mkvmerge v5.4.0 ('Piper') built on Mar 10 2012 13:34:39
Библиотека кодирования : libebml v1.2.3 + libmatroska v1.3.0

Видео
Идентификатор : 1
Формат : AVC
Формат/Информация : Advanced Video Codec
Профиль формата : High@L4.1
Параметр CABAC формата : Да
Параметр ReFrames формата : 4 кадра
Идентификатор кодека : V_MPEG4/ISO/AVC
Продолжительность : 1 ч. 36 м.
Битрейт : 6050 Кбит/сек
Ширина : 1920 пикселей
Высота : 962 пикселя
Соотношение сторон : 1,996
Режим частоты кадров : Постоянный
Частота кадров : 25,000 кадров/сек
Цветовое пространство : YUV
Субдискретизация насыщенности : 4:2:0
Битовая глубина : 8 бит
Тип развёртки : Прогрессивная
Бит/(Пиксели*Кадры) : 0.131
Размер потока : 3,99 Гбайт (80%)
Библиотека кодирования : x264 core 125 r2208 d9d2288
Настройки программы : cabac=1 / ref=4 / deblock=1:-2:-2 / analyse=0x3:0x133 / me=umh / subme=10 / psy=1 / psy_rd=1.00:0.15 / mixed_ref=1 / me_range=32 / chroma_me=1 / trellis=2 / 8x8dct=1 / cqm=0 / deadzone=21,11 / fast_pskip=0 / chroma_qp_offset=-3 / threads=6 / lookahead_threads=1 / sliced_threads=0 / nr=0 / decimate=0 / interlaced=0 / bluray_compat=0 / constrained_intra=0 / bframes=8 / b_pyramid=2 / b_adapt=2 / b_bias=0 / direct=3 / weightb=1 / open_gop=0 / weightp=2 / keyint=250 / keyint_min=25 / scenecut=40 / intra_refresh=0 / rc=2pass / mbtree=0 / bitrate=6050 / ratetol=1.0 / qcomp=0.60 / qpmin=0 / qpmax=69 / qpstep=4 / cplxblur=20.0 / qblur=0.5 / ip_ratio=1.40 / pb_ratio=1.30 / aq=1:0.80
Default : Да
Forced : Нет

Аудио #1
Идентификатор : 2
Формат : AC-3
Формат/Информация : Audio Coding 3
Расширение режима : CM (complete main)
Параметр Endianness формата : Big
Идентификатор кодека : A_AC3
Продолжительность : 1 ч. 36 м.
Вид битрейта : Постоянный
Битрейт : 448 Кбит/сек
Каналы : 6 каналов
Расположение каналов : Front: L C R, Side: L R, LFE
Частота : 48,0 КГц
Битовая глубина : 16 бит
Метод сжатия : С потерями
Размер потока : 310 Мбайт (6%)
Язык : Russian
Default : Да
Forced : Нет

Аудио #2
Идентификатор : 3
Формат : AC-3
Формат/Информация : Audio Coding 3
Расширение режима : CM (complete main)
Параметр Endianness формата : Big
Идентификатор кодека : A_AC3
Продолжительность : 1 ч. 36 м.
Вид битрейта : Постоянный
Битрейт : 448 Кбит/сек
Каналы : 6 каналов
Расположение каналов : Front: L C R, Side: L R, LFE
Частота : 48,0 КГц
Битовая глубина : 16 бит
Метод сжатия : С потерями
Задержка видео : 7 с. 0 мс.
Размер потока : 310 Мбайт (6%)
Язык : English
Default : Нет
Forced : Нет

Аудио #3
Идентификатор : 4
Формат : AC-3
Формат/Информация : Audio Coding 3
Расширение режима : CM (complete main)
Параметр Endianness формата : Big
Идентификатор кодека : A_AC3
Продолжительность : 1 ч. 36 м.
Вид битрейта : Постоянный
Битрейт : 448 Кбит/сек
Каналы : 6 каналов
Расположение каналов : Front: L C R, Side: L R, LFE
Частота : 48,0 КГц
Битовая глубина : 16 бит
Метод сжатия : С потерями
Задержка видео : 7 с. 0 мс.
Размер потока : 310 Мбайт (6%)
Язык : German
Default : Нет
Forced : Нет


Релиз от:



   Похожие торренты   Торрент   Размер 
В этой теме нет новых непрочитанных сообщений. Красный холст / The Red Canvas (2009) HDTVRip-AVC от MediaClub | P

2 | 4

2.26 ГБ

В этой теме нет новых непрочитанных сообщений. Красный холст / The Red Canvas (2009) DVDRip | P

87 | 5

1.37 ГБ

В этой теме нет новых непрочитанных сообщений. Дикие Балканы / The Wild Balkans (2009) HDTVRip 1080p MediaClub

0 | 3

4.23 ГБ

В этой теме нет новых непрочитанных сообщений. Великий поход зебр / Zebras on the Move (2009) HDTVRip 1080p | MediaClub | D

1 | 3

4.26 ГБ

В этой теме нет новых непрочитанных сообщений. Океанские приключения. Морские призраки / Ocean Adventures. Sea Ghosts (2009) HDTVRip 1080p от MediaClub | D

0 | 3

3.86 ГБ

В этой теме нет новых непрочитанных сообщений. Океанские приключения. Зов косатки / Ocean Adventures. Call of the Killer Whale (2009) HDTVRip 1080p от MediaClub | D

4 | 3

3.84 ГБ

В этой теме нет новых непрочитанных сообщений. National Geographic. В поисках акул. Самые большие челюсти / Shark men. Greatest Bites (2009) HDTVRip 1080p MediaClub

1 | 6

3.81 ГБ




Вы не можете начинать темы
Вы не можете отвечать на сообщения
Вы не можете редактировать свои сообщения
Вы не можете удалять свои сообщения
Вы не можете добавлять вложения

Перейти:  
 Вход
ppkBB3cker v.2 © 2008-2014 @ PPK
[ Time : 0.030s | 17 Queries | GZIP : Off ]

cron