img image001 image001 image001 image001 image001 image001 image001 image001 image001 image001 image001 image001 image001 image001 image001 image001

Planets Sun Sun Sun
Статистика раздачи
Автор: Снежана | Размер: 4.66 ГБ | Добавлен: 20 июл 2013
Раздают: 29    Качают: 6
Скачать торрент
Скачать торрент
Описание торрента

СообщениеДобавлено: 20 июл 2013 

[imgright]http://i15.fastpic.ru/big/2011/0216/2e/661e0d7b491ae2af79a84249ad7a6f2e.jpg" />

Жанр: Драма, Мелодрама, Детектив.
Год: 1994.
Студия: MK2 Productions.
Страна: Франция, Польша, Швейцария.
Режиссер: Кшиштоф Кесьлевский /Krzysztof Kieslowski/.
В ролях: Ирен Жакоб /Irene Jacob/, Жан-Луи Трентиньян /Jean-Louis Trintignant/, Фредерик Федер /Frederique Feder/, Жан-Пьер Лори /Jean-Pierre Lorit/, Самюэль Ле Бьян /Samuel Le Bihan/, Марион Сталанс /Marion Stalens/, Теко Селио /Teco Celio/, Бернар Эскалон /Bernard Escalon/, Жан Шлегель /Jean Schlegel/, Эльжбета Ясиньска /Elzbieta Jasinska/.

Описание: Заключительная часть знаменитой трилогии. Рассказ о любви, о порой мучительной власти чувств, которые вершат судьбами людей. Авторы размышляют над темой человеческого одиночества, над тем, как любовь, добро и всепрощение помогают пролагать тропки доверия между людьми в холодном и враждебном мире...

*********** Trois couleurs: Rouge (1994) ***********

Release Date: 14.02.2011

Release Info:
File Name .....: Tri.Cveta.Krasnyi.1994.RUS.BDRip.720p.h264.AC3.-HQ-ViDEO.mkv
Author ........: GYN

Runtime .......: 01:34:57 min
Video Format ..: MKV, H.264 codec
Video Bitrate .: 6 006 kbps
Bits per Pixel : 0.273 bit/pixel
Resolution ....: 1 280 x 688
Aspect Ratio ..: 1.860
Framerate .....: 25.000 fps

Audio First....: Russian AC3 Dolby Digital; 448.00 kbps; 5.1 Ch; 48 kHz
Subtitle.......: Russian, English.

File Size .....: 4.37 GB
Source.........: Blu-ray Disc



General
Complete name : Tri.Cveta.Krasnyi.1994.RUS.BDRip.720p.h264.AC3.-HQ-ViDEO.mkv
Format : Matroska
File size : 4.37 GiB
Duration : 1h 34mn
Overall bit rate : 6 585 Kbps
Movie name : Trois couleurs: Rouge (1994)
Encoded date : UTC 2011-02-14 12:23:52
Writing application : mkvmerge v3.3.0 ('Language') built on Mar 24 2010 14:59:24
Writing library : libebml v0.8.0 + libmatroska v0.9.0

Video
ID : 1
Format : AVC
Format/Info : Advanced Video Codec
Format profile : High@L4.1
Format settings, CABAC : Yes
Format settings, ReFrames : 6 frames
Codec ID : V_MPEG4/ISO/AVC
Duration : 1h 34mn
Bit rate mode : Variable
Bit rate : 6 006 Kbps
Width : 1 280 pixels
Height : 688 pixels
Display aspect ratio : 1.860
Frame rate : 25.000 fps
Color space : YUV
Chroma subsampling : 4:2:0
Bit depth : 8 bits
Scan type : Progressive
Bits/(Pixel*Frame) : 0.273
Stream size : 3.98 GiB (91%)
Title : Encoded by GYN

Audio
ID : 2
Format : AC-3
Format/Info : Audio Coding 3
Mode extension : CM (complete main)
Codec ID : A_AC3
Duration : 1h 34mn
Bit rate mode : Constant
Bit rate : 448 Kbps
Channel(s) : 6 channels
Channel positions : Front: L C R, Side: L R, LFE
Sampling rate : 48.0 KHz
Bit depth : 16 bits
Stream size : 304 MiB (7%)
Title : MVO
Language : Russian

Text #1
ID : 3
Format : UTF-8
Codec ID : S_TEXT/UTF8
Codec ID/Info : UTF-8 Plain Text
Language : Russian

Text #2
ID : 4
Format : UTF-8
Codec ID : S_TEXT/UTF8
Codec ID/Info : UTF-8 Plain Text
Language : English


Язык: Русский профессиональный перевод + Французская дорожка (448/Отдельно).

Субтитры: Русские, Английские.

Скриншоты для оценки качества:




Релиз:


   Похожие торренты   Торрент   Размер 
В этой теме нет новых непрочитанных сообщений. Три цвета: Красный / Three Colours: Red / Trois couleurs: Rouge (1994) BDRip от HQCLUB

73 | 32

1.45 ГБ

В этой теме нет новых непрочитанных сообщений. Три цвета: Синий, Белый, Красный / Trois couleurs: Bleu, Bialy, Rouge (1993-1994) BDRip-AVC от MediaClub | P, A

98 | 43

8.84 ГБ

В этой теме нет новых непрочитанных сообщений. Три цвета: Синий, Белый, Красный / Trois couleurs: Bleu, Bialy, Rouge (1993-1994) BDRip от MediaClub | КПК

99 | 8

1.27 ГБ

В этой теме нет новых непрочитанных сообщений. Три цвета: Синий, Белый, Красный / Trois couleurs: Bleu, Bialy, Rouge (1993-1994) BDRemux 1080i | А, Р

0 | 0

46.33 ГБ

В этой теме нет новых непрочитанных сообщений. Три цвета: Белый / Three Colours: White / Trzy kolory: Bialy / Trois couleurs: Blanc (1994) BDRip от HQCLUB

60 | 40

1.45 ГБ

В этой теме нет новых непрочитанных сообщений. Три цвета: Синий / Three Colors: Blue / Trois couleurs: Bleu (1993) BDRip от HQCLUB

72 | 20

1.45 ГБ

В этой теме нет новых непрочитанных сообщений. Красный отель / L' Auberge rouge (2007) BDRip 720p | D

46 | 0

4.35 ГБ




Вы не можете начинать темы
Вы не можете отвечать на сообщения
Вы не можете редактировать свои сообщения
Вы не можете удалять свои сообщения
Вы не можете добавлять вложения

Перейти:  
 Вход
ppkBB3cker v.2 © 2008-2014 @ PPK
[ Time : 0.087s | 16 Queries | GZIP : Off ]

cron