img image001 image001 image001 image001 image001 image001 image001 image001 image001 image001 image001 image001 image001 image001 image001 image001

Planets Sun Sun Sun
Статистика раздачи
Автор: Снежана | Размер: 1.5 ГБ | Добавлен: 20 июл 2013
Раздают: 2    Качают: 4
Скачать торрент
Скачать торрент
Описание торрента

СообщениеДобавлено: 20 июл 2013 

#77

Тигры в губной помаде / Letti selvaggi / Tigers in Lipstick /1979/






Информация о фильме:

Название: Тигры в губной помаде / Дикие постели
Оригинальное название: Letti selvaggi / Tigers in Lipstick
Год выхода: 1979
Жанр: Комедия



Режиссер: Луиджи Дзампа /Luigi Zampa/
Сценаристы: Луис Кастро /Luis Castro/, Тонино Гуэрра /Tonino Guerra/, Джорджо Сальвиони /Giorgio Salvioni/
Операторы: Армандо Наннуцци /Armando Nannuzzi/, Джузеппе Руццолини /Giuseppe Ruzzolini/
Композитор: Риц Ортолани /Riz Ortolani/



В фильме снимались:
Урсула Андресс - Ursula Andress
Лаура Антонелли - Laura Antonelli
Сильвия Кристель - Sylvia Kristel
Моника Витти - Monica Vitti
Орацио Орландо - Orazio Orlando
Микеле Плачидо - Michele Placido
Хосе Сакристьян - José Sacristán
Роберто Бениньи - Roberto Benigni
Хосе Луис Лопес Васкес - José Luis López Vázquez
Джанфранко Барра - Gianfranco Barra
и другие...



Описание: Комедийный альманах, состоящий из нескольких остроумных новелл-анекдотов крайне эротического содержания.
01. Двадцать лет — это недолго (Сильвия Кристель)
02. Несколько скучный полдень (Лаура Антонелли и Хосе Луис Лопес Васкес)
03. Вдова (Урсула Андресс и Микеле Плачидо)
04. Мама (Моника Витти и Роберто Бениньи)
05. Молодой и неопытный (Сильвия Кристель)
06. Несколько волнующий полдень (Лаура Антонелли)
07. Пассажирка (Урсула Андресс и Хосе Луис Лопес Васкес)
08. Кто смеется последним (Моника Витти и Микеле Плачидо).




Страна:
Выпущено: Corona Cinematografica / Zodiac Produzioni
Продолжительность: 01:35:13
Перевод: Профессиональный, двухголосый /закадровый/
Субтитры: Русские /отдельно, в папке/ VobSub /









Format : AVI
Format/Info : Audio Video Interleave
File size : 1.49 GiB
Duration : 1h 35mn
Overall bit rate : 2 243 Kbps
Writing application : VirtualDubMod 1.5.10.2 (build 2540/release)

Video
ID : 0
Format : MPEG-4 Visual
Format profile : Advanced Simple@L5
Format settings, BVOP : Yes
Format settings, QPel : No
Format settings, GMC : No warppoints
Format settings, Matrix : Default (H.263)
Codec ID : XVID
Codec ID/Hint : XviD
Duration : 1h 35mn
Bit rate : 1 845 Kbps
Width : 640 pixels
Height : 360 pixels
Display aspect ratio : 16:9
Frame rate : 25.000 fps
Color space : YUV
Chroma subsampling : 4:2:0
Bit depth : 8 bits
Scan type : Progressive
Bits/(Pixel*Frame) : 0.320
Stream size : 1.23 GiB (82%)
Writing library : XviD 1.2.1 (UTC 2008-12-04)

Audio #1
ID : 1
Format : MPEG Audio
Format version : Version 1
Format profile : Layer 3
Codec ID : 55
Codec ID/Hint : MP3
Duration : 1h 35mn
Bit rate mode : Constant
Bit rate : 192 Kbps
Channel(s) : 2 channels
Sampling rate : 48.0 KHz
Stream size : 131 MiB (9%)
Alignment : Aligned on interleaves
Interleave, duration : 40 ms (1.00 video frame)
Interleave, preload duration : 504 ms
Writing library : LAME3.98r
Encoding settings : -m s -V 4 -q 2 -lowpass 18.6 -b 192

Audio #2
ID : 2
Format : AC-3
Format/Info : Audio Coding 3
Mode extension : CM (complete main)
Codec ID : 2000
Duration : 1h 35mn
Bit rate mode : Constant
Bit rate : 192 Kbps
Channel(s) : 2 channels
Channel positions : Front: L R
Sampling rate : 48.0 KHz
Bit depth : 16 bits
Stream size : 131 MiB (9%)
Alignment : Split accross interleaves
Interleave, duration : 40 ms (1.00 video frame)
Interleave, preload duration : 500 ms



Качество: DVDRip /Исходник DVD5/
Формат: AVI
Видео кодек: XviD
Аудио кодек: MP3 / AC3
Видео: 640x360 (1.78:1), 25 fps, XviD build 50 ~1843 kbps avg, 0.32 bit/pixel
Аудио 1: 48 kHz, MPEG Layer 3, 2 ch, ~192.00 kbps avg /Двухголосый/
Аудио 2: 48 kHz, AC3 Dolby Digital, 2/0 (L,R) ch, ~192.00 kbps avg /Оригинальный/














Автор рипа:





   Похожие торренты   Торрент   Размер 
В этой теме нет новых непрочитанных сообщений. Тигры в губной помаде / Letti selvaggi (1979) DVDRip | P2, Sub

220 | 22

1.46 ГБ

В этой теме нет новых непрочитанных сообщений. Камера в губной помаде / Lipstick Camera (1994) Web-DLLRip | A

117 | 9

1.37 ГБ

В этой теме нет новых непрочитанных сообщений. Американские тигры / American Tigers (1996) DVDRip | A

129 | 28

1.46 ГБ

В этой теме нет новых непрочитанных сообщений. Железнодорожные тигры / Railroad Tigers (2016) HDTVRip | L

41 | 1

2.05 ГБ

В этой теме нет новых непрочитанных сообщений. Viasat Nature: Тигры в доме / Tigers About the House [01-03] (2014) HDTVRip | P1

0 | 0

2.01 ГБ

В этой теме нет новых непрочитанных сообщений. Viasat Nature: Тигры в доме / Tigers About the House [01-03] (2014) HDTVRip 1080p | P1

4 | 0

4.61 ГБ

В этой теме нет новых непрочитанных сообщений. Они возвращаются (Тигры не боятся) / Vuelven (Tigers Are Not Afraid) (Исса Лопес) [2017, ужасы, фэнтези, криминал, WEBRip] АVO

16 | 0

1.03 ГБ




Вы не можете начинать темы
Вы не можете отвечать на сообщения
Вы не можете редактировать свои сообщения
Вы не можете удалять свои сообщения
Вы не можете добавлять вложения

Перейти:  
 Вход
ppkBB3cker v.2 © 2008-2014 @ PPK
[ Time : 0.075s | 15 Queries | GZIP : Off ]

cron