img image001 image001 image001 image001 image001 image001 image001 image001 image001 image001 image001 image001 image001 image001 image001 image001

Planets Sun Sun Sun
Статистика раздачи
Автор: Снежана | Размер: 699.7 МБ | Добавлен: 24 июл 2013
Раздают: 7    Качают: 5
Скачать торрент
Скачать торрент
Описание торрента

СообщениеДобавлено: 24 июл 2013 

Тайны дикой природы Индии: Львы пустыни
Secrets of Wild India: Desert Lions



#77

Год выпуска: 2012
Страна: США
Жанр: документальный
Продолжительность: 00:45:00
Перевод: Профессиональный (одноголосый дублированный) Игорь Тарадайкин
Русские субтитры: нет

Режиссер: Дункан Чард / Duncan Chard

Описание: В суровых условиях пустынь и соляных пустошей северо-запада Индии лишь самые выносливые животные могут выдерживать песчаные бури, засуху и зной.



Сэмпл: http://multi-up.com/879923

Качество: HDTVRip [HDTV 1080i от LeXa 84]
Формат: AVI
Видео: XviD, 720x400 (16:9), 1 972 Kbps, 25 fps
Аудио: MP2, 192 kbps, 48 kHz, 2 ch
General
Complete name : E:Tajny.dikoj.prirody.Indi.L'vy.pustyni.2011.HDTVRip.avi
Format : AVI
Format/Info : Audio Video Interleave
File size : 700 MiB
Duration : 44mn 59s
Overall bit rate : 2 174 Kbps
Writing application : VirtualDubMod 1.5.10.3 | www.virtualdub-fr.org || (build 2550/release)
Writing library : VirtualDubMod build 2550/release

Video
ID : 0
Format : MPEG-4 Visual
Format profile : Advanced Simple@L5
Format settings, BVOP : 1
Format settings, QPel : No
Format settings, GMC : No warppoints
Format settings, Matrix : Custom
Codec ID : XVID
Codec ID/Hint : XviD
Duration : 44mn 59s
Bit rate : 1 972 Kbps
Width : 720 pixels
Height : 400 pixels
Display aspect ratio : 16:9
Frame rate : 25.000 fps
Color space : YUV
Chroma subsampling : 4:2:0
Bit depth : 8 bits
Scan type : Progressive
Compression mode : Lossy
Bits/(Pixel*Frame) : 0.274
Stream size : 635 MiB (91%)
Writing library : XviD 73

Audio
ID : 1
Format : MPEG Audio
Format version : Version 1
Format profile : Layer 2
Codec ID : 50
Duration : 44mn 59s
Bit rate mode : Constant
Bit rate : 192 Kbps
Channel(s) : 2 channels
Sampling rate : 48.0 KHz
Compression mode : Lossy
Stream size : 61.8 MiB (9%)
Alignment : Aligned on interleaves
Interleave, duration : 40 ms (1.00 video frame)
Interleave, preload duration : 504 ms




Спасибо, LeXa 84, за предоставленный материал.



   Похожие торренты   Торрент   Размер 
В этой теме нет новых непрочитанных сообщений. Nat Geo Wild: Мир дикой природы / World of the Wild [1-8 из 13] (2016) HDTVRip от Kaztorrents | P1

9 | 4

3.97 ГБ

В этой теме нет новых непрочитанных сообщений. Nat Geo Wild: Мир дикой природы / World of the Wild [1-8 из 13] (2016) HDTVRip от Kaztorrents | P1

15 | 2

3.04 ГБ

В этой теме нет новых непрочитанных сообщений. Nat Geo Wild: Мир дикой природы / World of the Wild [1-8 из 13] (2016) HDTVRip от Kaztorrents | P1

0 | 0

3.66 ГБ

В этой теме нет новых непрочитанных сообщений. Nat Geo Wild: Мир дикой природы / World of the Wild [1-8 из 13] (2016) HDTVRip от Kaztorrents | P1

0 | 0

2.46 ГБ

В этой теме нет новых непрочитанных сообщений. Nat Geo Wild: Болотные львы / Swamp Lions (2011) HDTVRip от Leo.pard | D

13 | 3

700.04 МБ

В этой теме нет новых непрочитанных сообщений. Nat Geo Wild: Болотные львы / Swamp Lions (2011) HDTVRip-AVC от Leo.pard | D

11 | 6

700.55 МБ

В этой теме нет новых непрочитанных сообщений. Мир Дикой Природы / Wild World [s02] (2011-2012) SATRip от torrentfilm | P1

101 | 18

2.05 ГБ




Вы не можете начинать темы
Вы не можете отвечать на сообщения
Вы не можете редактировать свои сообщения
Вы не можете удалять свои сообщения
Вы не можете добавлять вложения

Перейти:  
 Вход
ppkBB3cker v.2 © 2008-2014 @ PPK
[ Time : 0.022s | 15 Queries | GZIP : Off ]

cron