img image001 image001 image001 image001 image001 image001 image001 image001 image001 image001 image001 image001 image001 image001 image001 image001

Planets Sun Sun Sun
Статистика раздачи
Автор: PriZraK | Размер: 1.79 ГБ | Добавлен: 12 фев 2018
Раздают: 3    Качают: 3
Скачать торрент
Скачать торрент
Описание торрента

СообщениеДобавлено: 12 фев 2018 

Секреты Луны (1-2 серии из 2) / Secrets of the Moon

Перевод: Профессиональный (двухголосый), cубтитры: отсутствуют
Формат: DVB, MPEG-TS, MPEG2, MP2
Страна: Франция, Planet +, Camera Lucida and Rare Media
Режиссер: Александр Абела
Жанр: документальный, научно-познавательный, астрономия
Продолжительность: 2 x ~00:51:15
Год выпуска: 2015

Описание: Человек давно мечтал покорить Луну. Сначала о покорении Луны заговорили в книгах писатели-фантасты, затем - кинематографисты. В ХХ веке благодаря научно-техническому прогрессу полет на Луну перестал быть недостижимой целью. Первый шаг человека на Луне - это лишь первый этап. Сегодня Луна открывает нам ворота во Вселенную.

Видео: 720х576@768x576 (4:3), 25 fps, MPEG-2 (Main@Main), ~2118 kbps avg, 0.204 bit/pixel
Аудио: 48 kHz, MPEG Layer 2, 2 ch, ~192.00 kbps avg

Доп. информация: озвучено студией Кондор по заказу ГТРК Культура
Размер кадра - анаморфный - (768x576)

Автор рипа и постера: skorpionN


Код:
Код:
Общее
Идентификатор : 1 (0x1)
Полное имя : D:\Secrets of the Moon\01_By The Light Of The Moon.ts
Формат : MPEG-TS
Размер файла : 892 Мбайт
Продолжительность : 51 м.
Режим общего битрейта : Переменный
Общий поток : 2432 Кбит/сек

Видео
Идентификатор : 205 (0xCD)
Идентификатор меню : 1005 (0x3ED)
Формат : MPEG Video
Версия формата : Version 2
Профиль формата : Main@Main
Параметр BVOP формата : Да
Параметр матрицы формата : Выборочная
Параметр GOP формата : M=3, N=15
Структура изображения : Frame
Идентификатор кодека : 2
Продолжительность : 51 м.
Вид битрейта : Переменный
Битрейт : 2118 Кбит/сек
Максимальный битрейт : 9800 Кбит/сек
Ширина : 720 пикселей
Высота : 576 пикселей
Соотношение сторон : 4:3
Частота кадров : 25,000 кадров/сек
Стандарт вещания : PAL
Цветовое пространство : YUV
Субдискретизация насыщенности : 4:2:0
Битовая глубина : 8 бит
Тип развёртки : Чересстрочная
Порядок развёртки : Верхнее поле первое
Метод сжатия : С потерями
Бит/(Пиксели*Кадры) : 0.204
Временной код первого кадра : 00:00:00:00
Оригинал временного кода : Group of pictures header
GOP, открыто/закрыто : Открыто
GOP, открыто/закрыто на первом кадре : Закрыто
Размер потока : 777 Мбайт (87%)

Аудио
Идентификатор : 305 (0x131)
Идентификатор меню : 1005 (0x3ED)
Формат : MPEG Audio
Версия формата : Version 1
Профиль формата : Layer 2
Идентификатор кодека : 3
Продолжительность : 51 м.
Вид битрейта : Постоянный
Битрейт : 192 Кбит/сек
Каналы : 2 канала
Частота : 48,0 КГц
Метод сжатия : С потерями
Размер потока : 70,4 Мбайт (8%)
Язык : Russian

Текст
Идентификатор : 306 (0x132)-888
Идентификатор меню : 1005 (0x3ED)
Формат : Teletext Subtitle
Язык : Russian
Язык, дополнительно : For hearing impaired people


01. Под лунным светом / By The Light Of The Moon
02. От Земли до Луны / From The Earth To The Moon

















   Похожие торренты   Торрент   Размер 
В этой теме нет новых непрочитанных сообщений. Как устроена Вселенная (5 сезон: 3 серии из 9) / How the Universe Works (Ник Дж. Миллер, Лиза Мерфи Райлли) [2016-2017, документальный, научно-познавательный, астрономия, космос, HDTVRip] VO

0 | 2

1.81 ГБ

В этой теме нет новых непрочитанных сообщений. Как устроена Вселенная (5 сезон: 3 серии из 9) / How the Universe Works (Ник Дж. Миллер, Лиза Мерфи Райлли) [2016-2017, документальный, научно-познавательный, астрономия, космос, HDTVRip 720р] VO

3 | 0

3.61 ГБ

В этой теме нет новых непрочитанных сообщений. Секреты устройства античных городов (1-2 серии из 2) / Building the Ancient City (Пауль Элстон) [2015, документальный, научно-познавательный, история, LowHDRip] DUB

8 | 0

1.64 ГБ

В этой теме нет новых непрочитанных сообщений. Удивительные подземные тайны (1-2 серии из 3) / Amazing Underground Secrets (Линетт Сингер) [2011, документальный, научно-познавательный, DVB] VO

2 | 0

3.59 ГБ

В этой теме нет новых непрочитанных сообщений. Великая тайна математики / The Great Math Mystery (Дэниэл МакКейб, Ричард Рейш) [2015, документальный, научно-познавательный, математика, физика, астрономия, HDTVRip 720р] DVO / Blu-Ray / BDRip / HDTV

1 | 0

1.54 ГБ

В этой теме нет новых непрочитанных сообщений. Вулкан (1-2 серии из 2) / The Volcano [2012, документальный, научно-познавательный, DVB] DVO

0 | 3

1.74 ГБ

В этой теме нет новых непрочитанных сообщений. Вниз по Ясельде-реке (Александр Анисимов) [2011, документальный, научно-познавательный, история, археология, SATRip]

2 | 0

184.3 МБ




Вы не можете начинать темы
Вы не можете отвечать на сообщения
Вы не можете редактировать свои сообщения
Вы не можете удалять свои сообщения
Вы не можете добавлять вложения

Перейти:  
 Вход
ppkBB3cker v.2 © 2008-2014 @ PPK
[ Time : 0.033s | 16 Queries | GZIP : Off ]

cron