img image001 image001 image001 image001 image001 image001 image001 image001 image001 image001 image001 image001 image001 image001 image001 image001

Planets Sun Sun Sun
Статистика раздачи
Автор: Снежана | Размер: 5.18 ГБ | Добавлен: 05 дек 2018
Раздают: 99    Качают: 34
Скачать торрент
Скачать торрент
Описание торрента

СообщениеДобавлено: 05 дек 2018 

Полицейский с Рублёвки (4 сезон 3 серии из 8)

Перевод: Не требуется, cубтитры: отсутствуют
Формат: WEBRip 1080p, MKV, H.264, AC3
Страна: Россия
Режиссер: Илья Куликов
Жанр: комедия, криминал
Всего серий: 8
Продолжительность: 3 х ~ 00:48:00
Год выпуска: 2018

В ролях: Александр Петров (III), Дмитрий Мазуров, Сергей Бурунов, Татьяна Бабенкова, Софья Каштанова, Роман Попов, Александра Бортич, Ирина Вилкова, Юрий Брешин, Рина Гришина

Описание: Грише Измайлову и его начальнику Владимиру Яковлеву противостоит преступный гений, который решил сделать жизнь рублёвских обитателей невыносимой. Прежде спокойный и безопасный район теперь задыхается от беззакония, злодей посягнул даже на оплот правопорядка – отдел полиции «Барвиха». В борьбе с преступником полицейские решают применить своё тайное оружие: умения и таланты следователя Игоря Мухича.
«Мы тебя найдём»

Рейтинг и доп. информация:


Видео: 1920x1080 (16:9), 25 fps, AVC MPEG4 (x264), Baseline@L4 ~ 5000 kbps , 0.096 bit/pixel
Аудио: 48 kHz, АС3, 2/0 (L,R), ~192.00 kbps avg
Внимание! Раздача ведётся путём добавления новых серий. При каждом добавлении создаётся новый торрент.
Чтобы начать докачку новой серии, пользователям необходимо сделать следующее:
1. Остановить скачивание.
2. Удалить старый торрент у себя из клиента (старые серии удалять не надо).
3. Скачать новый торрент и запустить его у себя в клиенте вместо старого, при этом указать клиенту путь в старую папку куда и должно происходить скачивание новых серий. Ваш клиент при этом должен произвести хеширование (проверку) старой папки и будет докачивать только те серии, которых у вас ещё нет. Старые серии при этом не удаляются, а продолжают раздаваться! Eсли вы уже удалили старые серии, то предотвратить повторную закачку старых серий можно, отжав галочку в соответствующих местах при запуске нового торрента.


Общее
Уникальный идентификатор : 211834863351838215924139579932136894398 (0x9F5DE920FA4472DE9CA3A3A4741AEFBE)
Полное имя : C:\Politseyskiy.s.Rublevki.s04.2018.WEB-DL.(1080p).Getty\Politseyskiy.s.Rublevki.s04e01.2018.WEB-DL.(1080p).Getty.mkv
Формат : Matroska
Версия формата : Version 4
Размер файла : 1,71 Гбайт
Продолжительность : 47 м. 18 с.
Режим общего битрейта : Постоянный
Общий поток : 5172 Кбит/сек
Название фильма : Politseyskiy.s.Rublevki.s04e01.2018.WEB-DL.(1080p).Getty
Дата кодирования : UTC 2018-12-03 07:15:35
Программа кодирования : mkvmerge v7.8.0 ('River Man') 32bit built on Mar 27 2015 16:18:02
Библиотека кодирования : libebml v1.3.1 + libmatroska v1.4.2

Видео
Идентификатор : 1
Формат : AVC
Формат/Информация : Advanced Video Codec
Профиль формата : Baseline@L4
Настройки формата : 4 Ref Frames
Параметр CABAC формата : Нет
Параметр RefFrames формата : 4 кадра
Идентификатор кодека : V_MPEG4/ISO/AVC
Продолжительность : 47 м. 18 с.
Вид битрейта : Постоянный
Битрейт : 5000 Кбит/сек
Ширина : 1920 пикселей
Высота : 1080 пикселей
Соотношение сторон : 16:9
Режим частоты кадров : Постоянный
Частота кадров : 25,000 кадров/сек
Стандарт вещания : PAL
Цветовое пространство : YUV
Субдискретизация насыщенности : 4:2:0
Битовая глубина : 8 бит
Тип развёртки : Прогрессивная
Бит/(Пиксели*Кадры) : 0.096
Размер потока : 1,64 Гбайт (96%)
Default : Да
Forced : Нет
Цветовой диапазон : Limited
Основные цвета : BT.709
Характеристики трансфера : BT.709
Коэффициенты матрицы : BT.709

Аудио
Идентификатор : 2
Формат : AC-3
Формат/Информация : Audio Coding 3
Коммерческое название : Dolby Digital
Идентификатор кодека : A_AC3
Продолжительность : 47 м. 18 с.
Вид битрейта : Постоянный
Битрейт : 192 Кбит/сек
Каналы : 2 канала
Channel layout : L R
Частота : 48,0 КГц
Частота кадров : 31,250 кадров/сек (1536 SPF)
Битовая глубина : 16 бит
Метод сжатия : С потерями
Размер потока : 65,0 Мбайт (4%)
ServiceKind/String : Complete Main
Default : Да
Forced : Нет








   Похожие торренты   Торрент   Размер 
В этой теме нет новых непрочитанных сообщений. Полицейский с Рублёвки (4 сезон 3 серии из 8) (Илья Куликов) [2018, комедия, криминал, WEBRip 1080p]

32 | 22

6.95 ГБ

В этой теме нет новых непрочитанных сообщений. Полицейский с Рублёвки (4 сезон 1-8 серии из 8) (Илья Куликов) [2018, комедия, криминал, WEBRip 1080p]

128 | 137

13.67 ГБ

В этой теме нет новых непрочитанных сообщений. Полицейский с Рублёвки (4 сезон 1-8 серии из 8) (Илья Куликов) [2018, комедия, криминал, WEBRip]

292 | 379

4.3 ГБ

В этой теме нет новых непрочитанных сообщений. Полицейский с Рублёвки (4 сезон 2 серии из 8) (Илья Куликов) [2018, комедия, криминал, WEBRip]

8 | 4

1.08 ГБ

В этой теме нет новых непрочитанных сообщений. Полицейский с Рублёвки (4 сезон 1-8 серии из 8) (Илья Куликов) [2018, комедия, криминал, WEBRip]

254 | 276

3.85 ГБ

В этой теме нет новых непрочитанных сообщений. Полицейский с Рублёвки (4 сезон 1-2 серии из 8) (Илья Куликов) [2018, комедия, криминал, WEBRip-AVC]

77 | 18

1.22 ГБ

В этой теме нет новых непрочитанных сообщений. Полицейский с Рублёвки (4 сезон 1-4 серии из 8) (Илья Куликов) [2018, комедия, криминал, WEBRip-AVC]

135 | 122

2.41 ГБ




Вы не можете начинать темы
Вы не можете отвечать на сообщения
Вы не можете редактировать свои сообщения
Вы не можете удалять свои сообщения
Вы не можете добавлять вложения

Перейти:  
 Вход
ppkBB3cker v.2 © 2008-2014 @ PPK
[ Time : 0.041s | 17 Queries | GZIP : Off ]

cron