img image001 image001 image001 image001 image001 image001 image001 image001 image001 image001 image001 image001 image001 image001 image001 image001

Planets Sun Sun Sun
Статистика раздачи
Автор: Снежана | Размер: 7.25 ГБ | Добавлен: 04 дек 2018
Раздают: 10    Качают: 16
Скачать торрент
Скачать торрент
Описание торрента

СообщениеДобавлено: 04 дек 2018 

Улётный экипаж (2 сезон 1-12 серии из 21)

Перевод: Не требуется, cубтитры: отсутствуют
Формат: WEB-DL 720p, MKV, H.264, AC3
Страна: Россия
Режиссер: Дмитрий Губарев
Жанр: комедия
Всего серий: 21
Продолжительность: 12 ~ 00:25:00
Год выпуска: 2018

В ролях: Алексей Чадов, Наталья Бардо, Макар Запорожский, Алёна Савастова, Владимир Сычёв, Никита Тарасов, Катрин Асси, Юлия Топольницкая, Андрей Родной, Сергей Белов, Максим Меркулов (II), Олег Жаков (II), Евгения Глотова

Описание: По сюжету новых серий, чтобы не делить кабину с бывшей девушкой Полиной Овечкиной, Алексей Кулагин становится частным пилотом поп-звезды Карины. На замену своенравному лётчику приходит его младший брат Саша, который готов не только сменить ненавистного родственника, но и стать соперником Кулагина в борьбе за сердце Полины.

Рейтинг и доп. информация:


Видео: 1280x720 (16:9), 25 fps, AVC MPEG-4 (x264), ~ 3500 kbps , 0.152 bit/pixel
Аудио: 48 kHz, АС3, 2/0 (L,R), ~192.00 kbps avg
Внимание! Раздача ведётся путём добавления новых серий. При каждом добавлении создаётся новый торрент.
Чтобы начать докачку новой серии, пользователям необходимо сделать следующее:
1. Остановить скачивание.
2. Удалить старый торрент у себя из клиента (старые серии удалять не надо).
3. Скачать новый торрент и запустить его у себя в клиенте вместо старого, при этом указать клиенту путь в старую папку куда и должно происходить скачивание новых серий. Ваш клиент при этом должен произвести хеширование (проверку) старой папки и будет докачивать только те серии, которых у вас ещё нет. Старые серии при этом не удаляются, а продолжают раздаваться! Eсли вы уже удалили старые серии, то предотвратить повторную закачку старых серий можно, отжав галочку в соответствующих местах при запуске нового торрента.


Общее
Уникальный идентификатор : 171750294360418077432315083021864809501 (0x8135E74AE5ED7097B6611DADD9E2341D)
Полное имя : C:\Uletnyi.Ekipazh.s02.2018.WEB-DL.(720p).Getty\Uletnyi.Ekipazh.s02e01.2018.WEB-DL.(720p).Getty.mkv
Формат : Matroska
Версия формата : Version 2
Размер файла : 607 Мбайт
Продолжительность : 23 м. 18 с.
Режим общего битрейта : Переменный
Общий поток : 3642 Кбит/сек
Название фильма : Uletnyi.Ekipazh.s02e01.2018.WEB-DL.(720p).Getty
Дата кодирования : UTC 2018-11-26 11:10:27
Программа кодирования : mkvmerge v4.0.0 ('The Stars were mine') сборка от Jun 6 2010 16:18:42
Библиотека кодирования : libebml v1.0.0 + libmatroska v1.0.0

Видео
Идентификатор : 1
Формат : AVC
Формат/Информация : Advanced Video Codec
Профиль формата :
Настройки формата : CABAC / 5 Ref Frames
Параметр CABAC формата : Да
Параметр RefFrames формата : 5 кадров
Идентификатор кодека : V_MPEG4/ISO/AVC
Продолжительность : 23 м. 18 с.
Вид битрейта : Переменный
Битрейт : 3500 Кбит/сек
Максимальный битрейт : 40,0 Мбит/сек
Ширина : 1280 пикселей
Высота : 720 пикселей
Соотношение сторон : 16:9
Режим частоты кадров : Постоянный
Частота кадров : 25,000 кадров/сек
Цветовое пространство : YUV
Субдискретизация насыщенности : 4:2:0
Битовая глубина : 8 бит
Тип развёртки : Прогрессивная
Бит/(Пиксели*Кадры) : 0.152
Размер потока : 563 Мбайт (93%)
Язык : Russian
Default : Да
Forced : Нет

Аудио
Идентификатор : 2
Формат : AC-3
Формат/Информация : Audio Coding 3
Коммерческое название : Dolby Digital
Идентификатор кодека : A_AC3
Продолжительность : 23 м. 18 с.
Вид битрейта : Постоянный
Битрейт : 192 Кбит/сек
Каналы : 2 канала
Channel layout : L R
Частота : 48,0 КГц
Частота кадров : 31,250 кадров/сек (1536 SPF)
Битовая глубина : 16 бит
Метод сжатия : С потерями
Размер потока : 32,0 Мбайт (5%)
Язык : Russian
ServiceKind/String : Complete Main
Default : Да
Forced : Нет








   Похожие торренты   Торрент   Размер 
В этой теме нет новых непрочитанных сообщений. Улётный экипаж (2 сезон 1-21 серии из 21) (Дмитрий Губарев) [2018, комедия, WEB-DL 720p]

48 | 82

12.72 ГБ

В этой теме нет новых непрочитанных сообщений. Улётный экипаж (2 сезон 1-12 серии из 21) (Дмитрий Губарев) [2018, комедия, WEB-DLRip-AVC]

59 | 14

3.56 ГБ

В этой теме нет новых непрочитанных сообщений. Улётный экипаж (2 сезон 1-21 серии из 21) (Дмитрий Губарев) [2018, комедия, WEB-DLRip-AVC]

26 | 19

6.25 ГБ

В этой теме нет новых непрочитанных сообщений. Улётный экипаж (2 сезон 1-21 серии из 21) (Дмитрий Губарев) [2018, комедия, WEB-DLRip-AVC]

113 | 122

6.25 ГБ

В этой теме нет новых непрочитанных сообщений. Улётный экипаж (2 сезон 1-21 серии из 21) (Дмитрий Губарев) [2018, комедия, WEB-DLRip]

112 | 45

6.45 ГБ

В этой теме нет новых непрочитанных сообщений. Улётный экипаж (2 сезон 1-12 серии из 21) (Дмитрий Губарев) [2018, комедия, WEB-DLRip]

78 | 15

3.67 ГБ

В этой теме нет новых непрочитанных сообщений. Ищейка (2 сезон 1-8 серии из 16) (Дмитрий Брусникин) [2018, детектив, WEB-DL 720p]

6 | 2

9.47 ГБ




Вы не можете начинать темы
Вы не можете отвечать на сообщения
Вы не можете редактировать свои сообщения
Вы не можете удалять свои сообщения
Вы не можете добавлять вложения

Перейти:  
 Вход
ppkBB3cker v.2 © 2008-2014 @ PPK
[ Time : 0.025s | 17 Queries | GZIP : Off ]

cron