img image001 image001 image001 image001 image001 image001 image001 image001 image001 image001 image001 image001 image001 image001 image001 image001

Planets Sun Sun Sun
Статистика раздачи
Автор: Снежана | Размер: 4.19 ГБ | Добавлен: 14 ноя 2018
Раздают: 0    Качают: 0
Скачать торрент
Скачать торрент
Описание торрента

СообщениеДобавлено: 14 ноя 2018 

Декабристка / Жертвоприношение (1-2 серии из 10)

Перевод: Не требуется, cубтитры: отсутствуют
Формат: WEBRip 1080p, MKV, H.264, AC3
Страна: Россия
Режиссер: Ирина Гедрович
Жанр: драма
Всего серий: 10
Продолжительность: 2 x ~ 00:50:00
Год выпуска: 2018

В ролях: Светлана Иванова, Дмитрий Муляр, Сергей Пускепалис, Борис Каморзин, Вячеслав Манучаров, Полина Сыркина, Максим Карушев, Николай Козак, Георгий Тополага, Анатолий Гущин, Елена Папанова, Иван Мамонов, Сергей Греков

Описание: 1950-е годы, Москва. У судебного секретаря Зинаиды Уваровой в жизни было много горя: ее муж погиб на войне, и женщина осталась одна с маленьким сыном Мишей. Теперь мальчику уже 11 лет, и Зинаида вновь хочет обрести женское счастье. Она планирует выйти замуж за адвоката Алексея Левицкого, но один донос перечеркивает и успешную адвокатскую карьеру ее возлюбленного, и предстоящую свадьбу. Алексея отправляют в ссылку на 10 лет в Иркутскую область. Зинаида, бросив все, отправляется вслед за возлюбленным. У нее нет четкого плана, но женщина знает только одно: она не может оставаться в Москве, когда ее любимый человек находится в лагере. Зина хочет добиться пересмотра дела и освобождения любимого мужчины.
*Фильм основан на реальных событиях.


Рейтинг и доп. информация:


Видео: 1920х1080, (16:9), 25 fps, AVC MPEG4 (x264), ~ 6000 kbps avg, 0.116 bit/pixel
Аудио: 48 kHz, АС3, 2/0 (L,R), ~192.00 kbps avg
Внимание! Раздача ведётся путём добавления новых серий. При каждом добавлении создаётся новый торрент.
Чтобы начать докачку новой серии, пользователям необходимо сделать следующее:
1. Остановить скачивание.
2. Удалить старый торрент у себя из клиента (старые серии удалять не надо).
3. Скачать новый торрент и запустить его у себя в клиенте вместо старого, при этом указать клиенту путь в старую папку куда и должно происходить скачивание новых серий. Ваш клиент при этом должен произвести хеширование (проверку) старой папки и будет докачивать только те серии, которых у вас ещё нет. Старые серии при этом не удаляются, а продолжают раздаваться! Eсли вы уже удалили старые серии, то предотвратить повторную закачку старых серий можно, отжав галочку в соответствующих местах при запуске нового торрента.


Общее
Уникальный идентификатор : 194454928497478764350608845009080644871 (0x924AA82EB513AE85A58F7A679FBD7507)
Полное имя : C:\Dekabristka.2017.WEB-DL.(1080p).Nikolspup\Dekabristka.(01.seriya.iz.10).2017.WEB-DL.(1080p).Nikolspup.mkv
Формат : Matroska
Версия формата : Version 4
Размер файла : 2,13 Гбайт
Продолжительность : 49 м. 43 с.
Режим общего битрейта : Постоянный
Общий поток : 6141 Кбит/сек
Дата кодирования : UTC 2018-11-12 21:09:26
Программа кодирования : mkvmerge v7.8.0 ('River Man') 32bit built on Mar 27 2015 16:18:02
Библиотека кодирования : libebml v1.3.1 + libmatroska v1.4.2

Видео
Идентификатор : 1
Формат : AVC
Формат/Информация : Advanced Video Codec
Профиль формата :
Настройки формата : 2 Ref Frames
Параметр CABAC формата : Нет
Параметр RefFrames формата : 2 кадра
Идентификатор кодека : V_MPEG4/ISO/AVC
Продолжительность : 49 м. 43 с.
Вид битрейта : Постоянный
Битрейт : 6000 Кбит/сек
Ширина : 1920 пикселей
Высота : 1080 пикселей
Соотношение сторон : 16:9
Режим частоты кадров : Постоянный
Частота кадров : 25,000 кадров/сек
Стандарт вещания : PAL
Цветовое пространство : YUV
Субдискретизация насыщенности : 4:2:0
Битовая глубина : 8 бит
Тип развёртки : Прогрессивная
Бит/(Пиксели*Кадры) : 0.116
Размер потока : 2,02 Гбайт (95%)
Default : Да
Forced : Нет
Цветовой диапазон : Limited
Основные цвета : BT.709
Характеристики трансфера : BT.709
Коэффициенты матрицы : BT.709

Аудио
Идентификатор : 2
Формат : AC-3
Формат/Информация : Audio Coding 3
Коммерческое название : Dolby Digital
Идентификатор кодека : A_AC3
Продолжительность : 49 м. 43 с.
Вид битрейта : Постоянный
Битрейт : 192 Кбит/сек
Каналы : 2 канала
Channel layout : L R
Частота : 48,0 КГц
Частота кадров : 31,250 кадров/сек (1536 SPF)
Битовая глубина : 16 бит
Метод сжатия : С потерями
Размер потока : 68,3 Мбайт (3%)
Язык : Russian
ServiceKind/String : Complete Main
Default : Да
Forced : Нет








   Похожие торренты   Торрент   Размер 
В этой теме нет новых непрочитанных сообщений. Декабристка / Жертвоприношение (1-8 серии из 10) (Ирина Гедрович) [2018, драма, WEBRip 1080p]

0 | 0

16.97 ГБ

В этой теме нет новых непрочитанных сообщений. Декабристка / Жертвоприношение (1-3 серии из 10) (Ирина Гедрович) [2018, драма, WEBRip 1080p]

1 | 0

6.3 ГБ

В этой теме нет новых непрочитанных сообщений. Декабристка / Жертвоприношение (1-9 серии из 10) (Ирина Гедрович) [2018, драма, WEBRip 1080p]

4 | 6

19.16 ГБ

В этой теме нет новых непрочитанных сообщений. Декабристка / Жертвоприношение (1- серии из 10) (Ирина Гедрович) [2018, драма, WEBRip 1080p]

3 | 2

2.13 ГБ

В этой теме нет новых непрочитанных сообщений. Декабристка / Жертвоприношение (1-5 серии из 10) (Ирина Гедрович) [2018, драма, WEBRip 1080p]

20 | 10

10.59 ГБ

В этой теме нет новых непрочитанных сообщений. Декабристка / Жертвоприношение (1-7 серии из 10) (Ирина Гедрович) [2018, драма, WEBRip 1080p]

0 | 0

14.91 ГБ

В этой теме нет новых непрочитанных сообщений. Декабристка / Жертвоприношение (1-10 серии из 10) (Ирина Гедрович) [2018, драма, WEBRip 1080p]

34 | 3

21.33 ГБ




Вы не можете начинать темы
Вы не можете отвечать на сообщения
Вы не можете редактировать свои сообщения
Вы не можете удалять свои сообщения
Вы не можете добавлять вложения

Перейти:  
 Вход
ppkBB3cker v.2 © 2008-2014 @ PPK
[ Time : 0.027s | 16 Queries | GZIP : Off ]

cron