img image001 image001 image001 image001 image001 image001 image001 image001 image001 image001 image001 image001 image001 image001 image001 image001

Planets Sun Sun Sun
Статистика раздачи
Автор: Снежана | Размер: 13.71 ГБ | Добавлен: 14 ноя 2018
Раздают: 11    Качают: 9
Скачать торрент
Скачать торрент
Описание торрента

СообщениеДобавлено: 14 ноя 2018 

Ненастье (1-6 серии из 11)

Перевод: Не требуется, cубтитры: отсутствуют
Формат: HDTV 1080i, MPEG-TS, H.264, MP2
Страна: Россия
Режиссер: Сергей Урсуляк
Жанр: драма, экранизация
Всего серий: 11
Продолжительность: 6 x ~ 00:45:00
Год выпуска: 2018

В ролях: Александр Яценко, Александр Горбатов (II), Татьяна Лялина, Сергей Маковецкий, Александр Голубев, Павел Ворожцов, Антон Филипенко, Тарас Епифанцев, Олег Байкулов, Серафима Красникова, Дмитрий Куличков, Александр Кузнецов (IX), Сослан Фидаров, Евгений Смирнов-Иваницкий, Олег Кассин, Алексей Дякин, Никита Тезов, Максим Деричев, Татьяна Сомова, Иван Куколев, Валерий Карпов (II), Александр Матросов, Александра Урсуляк, Иван Федотов, Дмитрий Гирев

Описание: По роману Алексея Иванова. 90-е. Время больших перемен. Крушение иллюзий. Сломанные судьбы. Несбывшиеся мечты. И любовь... Любовь вопреки всему. Они вернулись в свою страну после Афганистана, но страна стала совсем другой. Они рассчитывают только на себя. Они доверяют только друг другу. В одном из уральских городов совершено дерзкое ограбление! Похищены 140 миллионов рублей! Грабитель – бывший «афганец» Герман Неволин, водитель инкассаторской машины. Что толкнуло его на преступление? Почему он принёс в жертву всё, чем дорожил – дружбу, любовь, и теперь вынужден скрываться в заброшенной деревушке Ненастье?..
«Однажды в стране, которой больше нет»

Рейтинг и доп. информация:


Видео: 1920х1080, (16:9), 25 fps, AVC MPEG-TS (x264), High@L4 ~ 7075 kbps avg, 0.136 bit/pixel
Аудио: 48 kHz, MPEG Layer 2, 2 ch, ~128.00 kbps avg
Внимание! Раздача ведётся путём добавления новых серий. При каждом добавлении создаётся новый торрент.
Чтобы начать докачку новой серии, пользователям необходимо сделать следующее:
1. Остановить скачивание.
2. Удалить старый торрент у себя из клиента (старые серии удалять не надо).
3. Скачать новый торрент и запустить его у себя в клиенте вместо старого, при этом указать клиенту путь в старую папку куда и должно происходить скачивание новых серий. Ваш клиент при этом должен произвести хеширование (проверку) старой папки и будет докачивать только те серии, которых у вас ещё нет. Старые серии при этом не удаляются, а продолжают раздаваться! Eсли вы уже удалили старые серии, то предотвратить повторную закачку старых серий можно, отжав галочку в соответствующих местах при запуске нового торрента.


Общее
Идентификатор : 1 (0x1)
Полное имя : C:\Nenast'e.2018.HDTV.1080i\Nenast'e.01.2018.HDTV.1080i.ts
Формат : MPEG-TS
Размер файла : 2,44 Гбайт
Продолжительность : 45 м. 43 с.
Режим общего битрейта : Переменный
Общий поток : 7645 Кбит/сек

Видео
Идентификатор : 2911 (0xB5F)
Идентификатор меню : 1192 (0x4A8)
Формат : AVC
Формат/Информация : Advanced Video Codec
Профиль формата : High@L4
Настройки формата : CABAC / 4 Ref Frames
Параметр CABAC формата : Да
Параметр RefFrames формата : 4 кадра
Идентификатор кодека : 27
Продолжительность : 45 м. 43 с.
Битрейт : 7074 Кбит/сек
Ширина : 1920 пикселей
Высота : 1080 пикселей
Соотношение сторон : 16:9
Частота кадров : 25,000 кадров/сек
Цветовое пространство : YUV
Субдискретизация насыщенности : 4:2:0
Битовая глубина : 8 бит
Тип развёртки : MBAFF
Метод сохранения типа развёртки : Чередующиеся поля
Порядок развёртки : Верхнее поле первое
Бит/(Пиксели*Кадры) : 0.136
Размер потока : 2,26 Гбайт (93%)

Аудио
Идентификатор : 2912 (0xB60)
Идентификатор меню : 1192 (0x4A8)
Формат : MPEG Audio
Версия формата : Version 1
Профиль формата : Layer 2
Настройки формата : Joint stereo / Intensity Stereo + MS Stereo
Идентификатор кодека : 3
Продолжительность : 45 м. 43 с.
Вид битрейта : Постоянный
Битрейт : 192 Кбит/сек
Каналы : 2 канала
Частота : 48,0 КГц
Частота кадров : 41,667 кадра/сек (1152 SPF)
Метод сжатия : С потерями
Размер потока : 62,8 Мбайт (3%)
Язык : Russian








   Похожие торренты   Торрент   Размер 
В этой теме нет новых непрочитанных сообщений. Ненастье (1-11 серии из 11) (Сергей Урсуляк) [2018, драма, экранизация, HDTV 1080i]

70 | 54

24.32 ГБ

В этой теме нет новых непрочитанных сообщений. Ненастье (1-3 серии из 11) (Сергей Урсуляк) [2018, драма, экранизация, HDTV 1080i]

13 | 0

7.02 ГБ

В этой теме нет новых непрочитанных сообщений. Ненастье (1-9 серии из 11) (Сергей Урсуляк) [2018, драма, экранизация, SATRip]

46 | 10

4.85 ГБ

В этой теме нет новых непрочитанных сообщений. Ненастье (1-9 серии из 11) (Сергей Урсуляк) [2018, драма, экранизация, HDTVRip]

24 | 28

4.45 ГБ

В этой теме нет новых непрочитанных сообщений. Ненастье (1-6 серии из 11) (Сергей Урсуляк) [2018, драма, экранизация, HDTVRip]

24 | 1

3.04 ГБ

В этой теме нет новых непрочитанных сообщений. Ненастье (1-11 серии из 11) (Сергей Урсуляк) [2018, драма, экранизация, HDTVRip]

358 | 91

5.4 ГБ

В этой теме нет новых непрочитанных сообщений. Ненастье (1-11 серии из 11) (Сергей Урсуляк) [2018, драма, экранизация, HDTVRip-AVC]

91 | 9

6.98 ГБ




Вы не можете начинать темы
Вы не можете отвечать на сообщения
Вы не можете редактировать свои сообщения
Вы не можете удалять свои сообщения
Вы не можете добавлять вложения

Перейти:  
 Вход
ppkBB3cker v.2 © 2008-2014 @ PPK
[ Time : 0.033s | 16 Queries | GZIP : Off ]

cron