img image001 image001 image001 image001 image001 image001 image001 image001 image001 image001 image001 image001 image001 image001 image001 image001

Planets Sun Sun Sun
Статистика раздачи
Автор: Снежана | Размер: 8.35 ГБ | Добавлен: 12 ноя 2018
Раздают: 22    Качают: 27
Скачать торрент
Скачать торрент
Описание торрента

СообщениеДобавлено: 12 ноя 2018 

Звоните ДиКаприо! (1-5 серии из 8)

Перевод: Не требуется, cубтитры: отсутствуют
Формат: WEBRip 1080p, MKV, H.264, AC3
Страна: Россия
Режиссер: Жора Крыжовников
Жанр: комедия, драма, мелодрама
Всего серий: 8
Продолжительность: 5 x ~ 00:50:00
Год выпуска: 2018

В ролях: Александр Петров (III), Андрей Бурковский, Юлия Александрова, Юлия Хлынина, Дарья Гущина, Александра Ревенко, Антон Васильев (III), Анна Невская, Игорь Миркурбанов, Яна Кошкина, Наталия Потапова, Маруся Климова, Матвей Якубов, Марта Тимофеева, Виталия Корниенко, Дарья Фекленко, Анна Хилькевич, Сергей Лавыгин, Павел Ворожцов, Александра Власова, Анна Бегунова, Артём Семакин, Гэ Ян, Галина Кашковская, Лариса Какоева, Александр Красовский, Данила Якушев, Равшана Куркова, Сергей Муравьёв, Анастасия Ковалив

Описание: Неудачливый актер Лев всю жизнь завидовал младшему брату Егору, любимцу женщин, человеку года по версии журнала GQ. Но неожиданно, в силу непреодолимых обстоятельств, братьям придется поменяться местами…
«Что останется после тебя?»

Рейтинг и доп. информация:


Видео: 1920x1080 (16:9), 25 fps, AVC MPEG-4 (x264), Baseline@L4 ~ 5000 kbps , 0.096 bit/pixel
Аудио: 48 kHz, AC3, 2/0 (L,R) ch, ~192 kbps
Внимание! Раздача ведётся путём добавления новых серий. При каждом добавлении создаётся новый торрент.
Чтобы начать докачку новой серии, пользователям необходимо сделать следующее:
1. Остановить скачивание.
2. Удалить старый торрент у себя из клиента (старые серии удалять не надо).
3. Скачать новый торрент и запустить его у себя в клиенте вместо старого, при этом указать клиенту путь в старую папку куда и должно происходить скачивание новых серий. Ваш клиент при этом должен произвести хеширование (проверку) старой папки и будет докачивать только те серии, которых у вас ещё нет. Старые серии при этом не удаляются, а продолжают раздаваться! Eсли вы уже удалили старые серии, то предотвратить повторную закачку старых серий можно, отжав галочку в соответствующих местах при запуске нового торрента.


Общее
Уникальный идентификатор : 239162182815649098910747612524203579339 (0xB3ECF6007D47CF89A3820F1EB68197CB)
Полное имя : C:\Zvonite.Dikaprio.2018.WEB-DL.(1080p).Getty\Zvonite.Dikaprio.e01.2018.WEB-DL.(1080p).Getty.mkv
Формат : Matroska
Версия формата : Version 4
Размер файла : 1,76 Гбайт
Продолжительность : 48 м. 58 с.
Режим общего битрейта : Постоянный
Общий поток : 5154 Кбит/сек
Название фильма : Zvonite.Dikaprio.e01.2018.WEB-DL.(1080p).Getty
Дата кодирования : UTC 2018-10-19 20:55:42
Программа кодирования : mkvmerge v7.8.0 ('River Man') 32bit built on Mar 27 2015 16:18:02
Библиотека кодирования : libebml v1.3.1 + libmatroska v1.4.2

Видео
Идентификатор : 1
Формат : AVC
Формат/Информация : Advanced Video Codec
Профиль формата : Baseline@L4
Настройки формата : 4 Ref Frames
Параметр CABAC формата : Нет
Параметр RefFrames формата : 4 кадра
Идентификатор кодека : V_MPEG4/ISO/AVC
Продолжительность : 48 м. 58 с.
Вид битрейта : Постоянный
Битрейт : 5000 Кбит/сек
Ширина : 1920 пикселей
Высота : 1080 пикселей
Соотношение сторон : 16:9
Режим частоты кадров : Постоянный
Частота кадров : 25,000 кадров/сек
Стандарт вещания : PAL
Цветовое пространство : YUV
Субдискретизация насыщенности : 4:2:0
Битовая глубина : 8 бит
Тип развёртки : Прогрессивная
Бит/(Пиксели*Кадры) : 0.096
Размер потока : 1,70 Гбайт (96%)
Default : Да
Forced : Нет
Цветовой диапазон : Limited
Основные цвета : BT.709
Характеристики трансфера : BT.709
Коэффициенты матрицы : BT.709

Аудио
Идентификатор : 2
Формат : AC-3
Формат/Информация : Audio Coding 3
Коммерческое название : Dolby Digital
Идентификатор кодека : A_AC3
Продолжительность : 48 м. 58 с.
Вид битрейта : Постоянный
Битрейт : 192 Кбит/сек
Каналы : 2 канала
Channel layout : L R
Частота : 48,0 КГц
Частота кадров : 31,250 кадров/сек (1536 SPF)
Битовая глубина : 16 бит
Метод сжатия : С потерями
Размер потока : 67,2 Мбайт (4%)
ServiceKind/String : Complete Main
Default : Да
Forced : Нет








   Похожие торренты   Торрент   Размер 
В этой теме нет новых непрочитанных сообщений. Звоните ДиКаприо! (1-6 серии из 8) (Жора Крыжовников) [2018, комедия, драма, мелодрама, WEBRip 1080p]

17 | 40

9.84 ГБ

В этой теме нет новых непрочитанных сообщений. Звоните ДиКаприо! (1-8 серии из 8) (Жора Крыжовников) [2018, комедия, драма, мелодрама, WEBRip 1080p]

0 | 0

13.21 ГБ

В этой теме нет новых непрочитанных сообщений. Звоните ДиКаприо! (1-3 серии из 8) (Жора Крыжовников) [2018, комедия, драма, мелодрама, WEBRip 1080p]

6 | 3

5.12 ГБ

В этой теме нет новых непрочитанных сообщений. Звоните ДиКаприо! (1-2 серии из 8) (Жора Крыжовников) [2018, комедия, драма, мелодрама, WEBRip 1080p]

4 | 0

3.39 ГБ

В этой теме нет новых непрочитанных сообщений. Звоните ДиКаприо! (1-7 серии из 8) (Жора Крыжовников) [2018, комедия, драма, мелодрама, WEBRip 1080p]

17 | 19

11.42 ГБ

В этой теме нет новых непрочитанных сообщений. Звоните ДиКаприо! (1-4 серии из 8) (Жора Крыжовников) [2018, комедия, драма, мелодрама, WEBRip 1080p]

16 | 10

6.85 ГБ

В этой теме нет новых непрочитанных сообщений. Звоните ДиКаприо! (1-6 серии из 8) (Жора Крыжовников) [2018, комедия, драма, мелодрама, WEBRip-AVC]

57 | 110

3.6 ГБ




Вы не можете начинать темы
Вы не можете отвечать на сообщения
Вы не можете редактировать свои сообщения
Вы не можете удалять свои сообщения
Вы не можете добавлять вложения

Перейти:  
 Вход
ppkBB3cker v.2 © 2008-2014 @ PPK
[ Time : 0.042s | 18 Queries | GZIP : Off ]

cron