img image001 image001 image001 image001 image001 image001 image001 image001 image001 image001 image001 image001 image001 image001 image001 image001

Planets Sun Sun Sun
Статистика раздачи
Автор: Снежана | Размер: 12.58 ГБ | Добавлен: 11 окт 2018
Раздают: 2    Качают: 3
Скачать торрент
Скачать торрент
Описание торрента

СообщениеДобавлено: 11 окт 2018 

Московская борзая (2 сезон 1-14 серии из 16)

Перевод: Не требуется, cубтитры: отсутствуют
Формат: WEB-DL 720p, MKV, H.264, AC3
Страна: Россия
Режиссер: Роман Просвирнин
Жанр: криминал, детектив, мелодрама
Всего серий: 16
Продолжительность: 14 х 00:50:30
Год выпуска: 2018

В ролях: Екатерина Климова, Ольга Красько, Олег Алмазов, Александр Ратников, Николай Лунин (II), Сергей Мухин, Евгений Пронин, Сергей Шеховцов, Михаил Владимиров, Татьяна Кузнецова, Анастасия Савосина, Анастасия Балякина, Надежда Бахтина, Екатерина Сёмина, Анна Телицына, Александр Стефанцов, Анатолий Бледный, Игорь Марков (II), Семён Шемес, Виктор Бабич, Арсений Гусев, Егор Губарев, Яна Василевская, Григорий Шевчук, Валерий Маслов, Виктор Рябов, Наталья Лукеичева, Маргарита Бекале, Виктор Пипа, Ирина Ефремова (II), Денис Дружинин, Пётр Королёв (II), Николай Шатохин, Алдар Когаев, Эдуард Федашко, Роман Калькаев, Александр Туманов, Василиса Савкина, Кирилл Ермичёв, Игорь Мещерин, Денис Урюпин

Описание: Новый сезон по-настоящему удивит телезрителей, ведь на этот раз события развернутся... в подсознании главной героини! Распутывая очередное преступление, Борзова сама становится жертвой. По сценарию, среди груды тел следователи находят полуживую Алевтину. Чтобы распутать головоломку и разобраться в трагедии, сыщики решаются на небывалый эксперимент. Интрига будет строиться вокруг нового персонажа в исполнении актрисы Екатерины Климовой. Именно её героине предстоит внедриться в голову майора Борзовой.

Рейтинг и доп. информация:


Видео: 1280х720 (16:9), 25 fps, AVC MPEG-4 (x264), ~ 1930 kbps , 0.084 bit/pixel
Аудио: 44 kHz, AC3, 2/0 (L,R) ch, ~192.00 kbps avg
Внимание! Раздача ведётся путём добавления новых серий. При каждом добавлении создаётся новый торрент.
Чтобы начать докачку новой серии, пользователям необходимо сделать следующее:
1. Остановить скачивание.
2. Удалить старый торрент у себя из клиента (старые серии удалять не надо).
3. Скачать новый торрент и запустить его у себя в клиенте вместо старого, при этом указать клиенту путь в старую папку куда и должно происходить скачивание новых серий. Ваш клиент при этом должен произвести хеширование (проверку) старой папки и будет докачивать только те серии, которых у вас ещё нет. Старые серии при этом не удаляются, а продолжают раздаваться! Eсли вы уже удалили старые серии, то предотвратить повторную закачку старых серий можно, отжав галочку в соответствующих местах при запуске нового торрента.


Общее
Уникальный идентификатор : 215987121238352106832894628897301212305 (0xA27D9B3F9E612628EFB0211F80B02C91)
Полное имя : C:\Московская борзая.s02.2018.WEB-DL (720p).by.Nicodem.Files-x\17.Московская борзая.s02.E01.2018.WEB-DL (720p).by.Nicodem.Files-x.mkv
Формат : Matroska
Версия формата : Version 4
Размер файла : 779 Мбайт
Продолжительность : 50 м. 18 с.
Общий поток : 2163 Кбит/сек
Программа кодирования : Lavf56.36.100
Библиотека кодирования : Lavf56.36.100

Видео
Идентификатор : 1
Формат : AVC
Формат/Информация : Advanced Video Codec
Профиль формата :
Настройки формата : CABAC / 4 Ref Frames
Параметр CABAC формата : Да
Параметр RefFrames формата : 4 кадра
Идентификатор кодека : V_MPEG4/ISO/AVC
Продолжительность : 50 м. 18 с.
Битрейт : 1930 Кбит/сек
Ширина : 1280 пикселей
Высота : 720 пикселей
Соотношение сторон : 16:9
Режим частоты кадров : Постоянный
Частота кадров : 25,000 кадров/сек
Цветовое пространство : YUV
Субдискретизация насыщенности : 4:2:0
Битовая глубина : 8 бит
Тип развёртки : Прогрессивная
Бит/(Пиксели*Кадры) : 0.084
Размер потока : 694 Мбайт (89%)
Default : Да
Forced : Нет

Аудио
Идентификатор : 2
Формат : AC-3
Формат/Информация : Audio Coding 3
Коммерческое название : Dolby Digital
Идентификатор кодека : A_AC3
Продолжительность : 50 м. 18 с.
Вид битрейта : Постоянный
Битрейт : 192 Кбит/сек
Каналы : 2 канала
Channel layout : L R
Частота : 44,1 КГц
Частота кадров : 28,711 кадров/сек (1536 SPF)
Битовая глубина : 16 бит
Метод сжатия : С потерями
Задержка видео : -160 мс.
Размер потока : 69,1 Мбайт (9%)
Язык : unknown
ServiceKind/String : Complete Main
Default : Да
Forced : Нет
















   Похожие торренты   Торрент   Размер 
В этой теме нет новых непрочитанных сообщений. Московская борзая (2 сезон 1-10 серии из 16) (Роман Просвирнин) [2018, криминал, детектив, мелодрама, WEB-DL 720p]

2 | 0

8.77 ГБ

В этой теме нет новых непрочитанных сообщений. Московская борзая (2 сезон 1-8 серии из 16) (Роман Просвирнин) [2018, криминал, детектив, мелодрама, WEB-DL 720p]

0 | 0

6.87 ГБ

В этой теме нет новых непрочитанных сообщений. Московская борзая (2 сезон 1-4 серии из 16) (Роман Просвирнин) [2018, криминал, детектив, мелодрама, WEB-DL 720p]

5 | 2

3.06 ГБ

В этой теме нет новых непрочитанных сообщений. Московская борзая (2 сезон 1-16 серии из 16) (Роман Просвирнин) [2018, криминал, детектив, мелодрама, WEB-DL 720p]

3 | 3

14.54 ГБ

В этой теме нет новых непрочитанных сообщений. Московская борзая (2 сезон 1-6 серии из 16) (Роман Просвирнин) [2018, криминал, детектив, мелодрама, WEB-DL 720p]

10 | 5

4.95 ГБ

В этой теме нет новых непрочитанных сообщений. Московская борзая (2 сезон 1-12 серии из 16) (Роман Просвирнин) [2018, криминал, детектив, мелодрама, WEB-DL 720p]

2 | 0

10.69 ГБ

В этой теме нет новых непрочитанных сообщений. Московская борзая (2 сезон 1-4 серии из 16) (Роман Просвирнин) [2018, криминал, детектив, мелодрама, HDTVRip 720p]

0 | 0

5.94 ГБ




Вы не можете начинать темы
Вы не можете отвечать на сообщения
Вы не можете редактировать свои сообщения
Вы не можете удалять свои сообщения
Вы не можете добавлять вложения

Перейти:  
 Вход
ppkBB3cker v.2 © 2008-2014 @ PPK
[ Time : 0.023s | 16 Queries | GZIP : Off ]

cron