img image001 image001 image001 image001 image001 image001 image001 image001 image001 image001 image001 image001 image001 image001 image001 image001

Planets Sun Sun Sun
Статистика раздачи
Автор: Снежана | Размер: 25.46 ГБ | Добавлен: 21 сен 2018
Раздают: 3    Качают: 7
Скачать торрент
Скачать торрент
Описание торрента

СообщениеДобавлено: 21 сен 2018 

Ищейка (3 сезон 1-12 серии из 16)

Перевод: Не требуется, cубтитры: отсутствуют
Формат: HDTV 1080i, MPEG-TS, H.264, AC3/MP2
Страна: Россия
Режиссер: Дмитрий Брусникин
Жанр: детектив
Всего серий: 16
Продолжительность: 12 х ~ 00:50:00
Год выпуска: 2018

В ролях: Анна Банщикова, Александр Макогон, Ольга Литвинова, Денис Бургазлиев, Владислав Павлов, Эдуард Чекмазов, Владимир Николенко, Анатолий Гущин, Ирина Пулина, Дмитрий Миллер, Дарья Антонюк, Юрий Грубник, Анастасия Великородная, Александр Мосолов, Дмитрий Комов, Евгений Кушпель, Яна Палецкая, Сергей Ланбамин, Мария Шляпина, Владимир Канухин, Антон Кузнецов, Алёна Мордовина, Сергей Цепов, Анастасия Сорокина, Алексей Демидов, Илья Сердюков

Описание: Жизнь подполковника Александры Кушнир постепенно возвращается в привычное русло. Кажется, героиня научилась выпутываться из самых сложных ситуаций, и её уже ничем не удивить. Но внезапно всего лишь один визит к врачу переворачивает всё с ног на голову. Расследования, быт героини, её отношения с близкими – ничто уже не будет прежним...

Рейтинг и доп. информация:


Видео: 1920х1080, (16:9), 25 fps, AVC MPEG-TS (x264), High@L4 ~ 5100 kbps avg, 0.099 bit/pixel
Аудио #1: Русский: 48 kHz, AC3 Dolby Digital, 3/2 (L,C,R,l,r) + LFE ch, ~384.00 kbps avg
Аудио #2: Русский: 48 kHz, MPEG Layer 2, 2 ch, ~192.00 kbps avg
Внимание! Раздача ведётся путём добавления новых серий. При каждом добавлении создаётся новый торрент.
Чтобы начать докачку новой серии, пользователям необходимо сделать следующее:
1. Остановить скачивание.
2. Удалить старый торрент у себя из клиента (старые серии удалять не надо).
3. Скачать новый торрент и запустить его у себя в клиенте вместо старого, при этом указать клиенту путь в старую папку куда и должно происходить скачивание новых серий. Ваш клиент при этом должен произвести хеширование (проверку) старой папки и будет докачивать только те серии, которых у вас ещё нет. Старые серии при этом не удаляются, а продолжают раздаваться! Eсли вы уже удалили старые серии, то предотвратить повторную закачку старых серий можно, отжав галочку в соответствующих местах при запуске нового торрента.


Общее
Идентификатор : 1 (0x1)
Полное имя : C:\Ishhejka-3.HDTV(1080i).GeneralFilm\01.Ishhejka-3.HDTV(1080i).GeneralFilm.ts
Формат : MPEG-TS
Размер файла : 2,18 Гбайт
Продолжительность : 51 м. 42 с.
Режим общего битрейта : Переменный
Общий поток : 6036 Кбит/сек

Видео
Идентификатор : 1904 (0x770)
Идентификатор меню : 80 (0x50)
Формат : AVC
Формат/Информация : Advanced Video Codec
Профиль формата : High@L4
Настройки формата : CABAC / 3 Ref Frames
Параметр CABAC формата : Да
Параметр RefFrames формата : 3 кадра
Идентификатор кодека : 27
Продолжительность : 51 м. 42 с.
Битрейт : 5156 Кбит/сек
Ширина : 1920 пикселей
Высота : 1080 пикселей
Соотношение сторон : 16:9
Частота кадров : 25,000 кадров/сек
Стандарт вещания : Component
Цветовое пространство : YUV
Субдискретизация насыщенности : 4:2:0
Битовая глубина : 8 бит
Тип развёртки : Чересстрочная
Метод сохранения типа развёртки : Раздельные поля
Порядок развёртки : Верхнее поле первое
Бит/(Пиксели*Кадры) : 0.099
Размер потока : 1,86 Гбайт (85%)
Цветовой диапазон : Limited
Основные цвета : BT.709
Характеристики трансфера : BT.709
Коэффициенты матрицы : BT.709

Аудио #1
Идентификатор : 2904 (0xB58)
Идентификатор меню : 80 (0x50)
Формат : AC-3
Формат/Информация : Audio Coding 3
Коммерческое название : Dolby Digital
Идентификатор кодека : 6
Продолжительность : 51 м. 42 с.
Вид битрейта : Постоянный
Битрейт : 384 Кбит/сек
Каналы : 6 каналов
Channel layout : L R C LFE Ls Rs
Частота : 48,0 КГц
Частота кадров : 31,250 кадров/сек (1536 SPF)
Битовая глубина : 16 бит
Метод сжатия : С потерями
Задержка видео : -80 мс.
Размер потока : 142 Мбайт (6%)
Язык : Russian
ServiceKind/String : Complete Main

Аудио #2
Идентификатор : 2905 (0xB59)
Идентификатор меню : 80 (0x50)
Формат : MPEG Audio
Версия формата : Version 1
Профиль формата : Layer 2
Идентификатор кодека : 3
Продолжительность : 51 м. 42 с.
Вид битрейта : Постоянный
Битрейт : 192 Кбит/сек
Каналы : 2 канала
Частота : 48,0 КГц
Частота кадров : 41,667 кадра/сек (1152 SPF)
Метод сжатия : С потерями
Задержка видео : -80 мс.
Размер потока : 71,0 Мбайт (3%)
Язык : Russian








   Похожие торренты   Торрент   Размер 
В этой теме нет новых непрочитанных сообщений. Ищейка (3 сезон 1-4 серии из 16) (Дмитрий Брусникин) [2018, детектив, HDTV 1080i]

35 | 48

8.34 ГБ

В этой теме нет новых непрочитанных сообщений. Ищейка (3 сезон 1-10 серии из 16) (Дмитрий Брусникин) [2018, детектив, HDTV 1080i]

0 | 8

20.87 ГБ

В этой теме нет новых непрочитанных сообщений. Ищейка (3 сезон 1-15 серии из 16) (Дмитрий Брусникин) [2018, детектив, HDTV 1080i]

1 | 11

31.63 ГБ

В этой теме нет новых непрочитанных сообщений. Ищейка (3 сезон 1-7 серии из 16) (Дмитрий Брусникин) [2018, детектив, HDTV 1080i]

6 | 4

14.51 ГБ

В этой теме нет новых непрочитанных сообщений. Ищейка (2 сезон 1-16 серии из 16) (Дмитрий Брусникин) [2018, детектив, HDTV 1080i]

6 | 0

36.55 ГБ

В этой теме нет новых непрочитанных сообщений. Ищейка (3 сезон 1-13 серии из 16) (Дмитрий Брусникин) [2018, детектив, HDTV 1080i]

0 | 0

27.5 ГБ

В этой теме нет новых непрочитанных сообщений. Ищейка (3 сезон 1-3 серии из 16) (Дмитрий Брусникин) [2018, детектив, HDTV 1080i]

5 | 3

6.23 ГБ




Вы не можете начинать темы
Вы не можете отвечать на сообщения
Вы не можете редактировать свои сообщения
Вы не можете удалять свои сообщения
Вы не можете добавлять вложения

Перейти:  
 Вход
ppkBB3cker v.2 © 2008-2014 @ PPK
[ Time : 0.054s | 18 Queries | GZIP : Off ]

cron