img image001 image001 image001 image001 image001 image001 image001 image001 image001 image001 image001 image001 image001 image001 image001 image001

Planets Sun Sun Sun
Статистика раздачи
Автор: Снежана | Размер: 33.35 ГБ | Добавлен: 08 авг 2018
Раздают: 8    Качают: 2
Скачать торрент
Скачать торрент
Описание торрента

СообщениеДобавлено: 08 авг 2018 

Лесник (4 сезон 1-44 серии из 60) Своя земля

Перевод: Не требуется, cубтитры: отсутствуют
Формат: HDTVRip-AVC, MKV, H.264, AC3
Страна: Россия
Режиссер: Виктор Конисевич
Жанр: детектив, криминал
Всего серий: 60
Продолжительность: 44 x ~ 00:50:00
Год выпуска: 2017

В ролях: Олег Штефанко, Анна Большова, Алексей Булдаков, Нина Гогаева, Михаил Васьков, Александр Тютин, Владимир Тимофеев, Николай Сморчков, Вадим Александров, Михаил Солодко, Наталия Санько, Татьяна Журавлева (II), Янина Бугрова, Сергей Рубеко, Юлия Куварзина, Наталья Дворецкая, Виталий Абдулов, Артём Кобзев, Ирина Аверина, Константин Юдаев, Александр Серов-Останкинский, Анатолий Филиппов, Илья Ермолов, Юлия Полынская, Валерий Новиков, Пётр Белышков, Алексей Гущин, Геннадий Чулков, Сергей Болотаев, Николай Токарев, Марина Зайцева, Любовь Зайцева, Олег Новиков, Татьяна Телегина (II), Даниил Толстых, Александр Пугачёв (II), Юрий Шлыков, Кристина Шелобкова, Артём Григорьев, Олег Билик, Эдуард Чемодаков, Роман Замятин, Натали Старынкевич, Вадим Ситников, Денис Варенов, Елена Коровчук, Денис Дружинин, Андрей Глущенко, Сергей Цепов, Анна Мареева, Николай Амосов, Светлана Йозефий, Дмитрий Бедерин, Евгений Михеев, Алёна Лисовская, Иван Щёголев, Александр Чекалин, Дмитрий Мазуров, Юрий Тузов, Олег Грисевич, Евгений Березовский, Михаил Куряев, Александр Силаев, Павел Беренштейн, Екатерина Мадалинская, Юрий Скулябин

Описание: У Леонида Зубова появляется новый враг — смотрящий по Навлинскому району, авторитет Саша Рафинад. Зубов хорошо знаком с ним — они отбывали срок в одной зоне, где Рафинад числился авторитетом. А так как основной доходный бизнес района — лес, то конфликт между лесником и смотрящим стремительно переходит в войну.

Рейтинг и доп. информация:


Видео: 1024x576 (16:9), 25 fps, AVC MPEG-4 (x264), , ~ 2000 kbps avg, 0.136 bit/pixel
Аудио: 48 kHz, AC3, 2/0 (L,R) ch, ~192.00 kbps avg
Внимание! Раздача ведётся путём добавления новых серий. При каждом добавлении создаётся новый торрент.
Чтобы начать докачку новой серии, пользователям необходимо сделать следующее:
1. Остановить скачивание.
2. Удалить старый торрент у себя из клиента (старые серии удалять не надо).
3. Скачать новый торрент и запустить его у себя в клиенте вместо старого, при этом указать клиенту путь в старую папку куда и должно происходить скачивание новых серий. Ваш клиент при этом должен произвести хеширование (проверку) старой папки и будет докачивать только те серии, которых у вас ещё нет. Старые серии при этом не удаляются, а продолжают раздаваться! Eсли вы уже удалили старые серии, то предотвратить повторную закачку старых серий можно, отжав галочку в соответствующих местах при запуске нового торрента.


Общее
Уникальный идентификатор : 219883300509370607193217805768136748573 (0xA56BFBB7B992A419AABAA00A39966E1D)
Полное имя : C:\Лесник-4. Своя земля.(2017).HDTVRip.(AVC).\01.Лесник-4. Своя земля.(2016).HDTVRip.AVC.mkv
Формат : Matroska
Версия формата : Version 2
Размер файла : 701 Мбайт
Продолжительность : 44 м. 39 с.
Общий поток : 2194 Кбит/сек
Дата кодирования : UTC 2017-03-14 02:14:28
Программа кодирования : mkvmerge v7.8.0 ('River Man') 32bit built on Apr 3 2015 12:11:22
Библиотека кодирования : libebml v1.3.1 + libmatroska v1.4.2

Видео
Идентификатор : 1
Формат : AVC
Формат/Информация : Advanced Video Codec
Профиль формата :
Параметр CABAC формата : Да
Параметр ReFrames формата : 9 кадров
Идентификатор кодека : V_MPEG4/ISO/AVC
Продолжительность : 44 м. 39 с.
Битрейт : 2000 Кбит/сек
Ширина : 1024 пикселя
Высота : 576 пикселей
Соотношение сторон : 16:9
Режим частоты кадров : Постоянный
Частота кадров : 25,000 кадров/сек
Цветовое пространство : YUV
Субдискретизация насыщенности : 4:2:0
Битовая глубина : 8 бит
Тип развёртки : Прогрессивная
Бит/(Пиксели*Кадры) : 0.136
Размер потока : 625 Мбайт (89%)
Библиотека кодирования : x264 core 146 r2538 121396c
Настройки программы : cabac=1 / ref=9 / deblock=1:-2:-1 / analyse=0x3:0x113 / me=umh / subme=9 / psy=1 / psy_rd=1.00:0.15 / mixed_ref=1 / me_range=32 / chroma_me=1 / trellis=2 / 8x8dct=1 / cqm=0 / deadzone=21,11 / fast_pskip=0 / chroma_qp_offset=-3 / threads=6 / lookahead_threads=1 / sliced_threads=0 / nr=0 / decimate=1 / interlaced=0 / bluray_compat=0 / constrained_intra=0 / bframes=9 / b_pyramid=2 / b_adapt=2 / b_bias=0 / direct=1 / weightb=1 / open_gop=0 / weightp=2 / keyint=250 / keyint_min=25 / scenecut=40 / intra_refresh=0 / rc_lookahead=50 / rc=2pass / mbtree=0 / bitrate=2000 / ratetol=1.0 / qcomp=0.60 / qpmin=0 / qpmax=69 / qpstep=4 / cplxblur=20.0 / qblur=0.5 / vbv_maxrate=14000 / vbv_bufsize=14000 / nal_hrd=none / filler=0 / ip_ratio=1.40 / pb_ratio=1.30 / aq=2:1.00
Default : Да
Forced : Нет
Цветовой диапазон : Limited
Основные цвета : BT.709
Характеристики трансфера : BT.709
Коэффициенты матрицы : BT.709

Аудио
Идентификатор : 2
Формат : AC-3
Формат/Информация : Audio Coding 3
Параметр Endianness формата : Big
Идентификатор кодека : A_AC3
Продолжительность : 44 м. 39 с.
Вид битрейта : Постоянный
Битрейт : 192 Кбит/сек
Каналы : 2 канала
Расположение каналов : Front: L R
Частота : 48,0 КГц
Частота кадров : 31,250 кадров/сек (1536 spf)
Битовая глубина : 16 бит
Метод сжатия : С потерями
Размер потока : 61,3 Мбайт (9%)
ServiceKind/String : Complete Main
Default : Да
Forced : Нет















   Похожие торренты   Торрент   Размер 
В этой теме нет новых непрочитанных сообщений. Лесник (4 сезон 1-54 серии из 60) Своя земля (Виктор Конисевич) [2017, детектив, криминал, HDTVRip-AVC]

7 | 22

41.24 ГБ

В этой теме нет новых непрочитанных сообщений. Лесник (4 сезон 1-34 серии из 60) Своя земля (Виктор Конисевич) [2017, детектив, криминал, HDTVRip]

18 | 11

20.06 ГБ

В этой теме нет новых непрочитанных сообщений. Лесник (4 сезон 1-48 серии из 60) Своя земля (Виктор Конисевич) [2017, детектив, криминал, HDTVRip]

11 | 14

28.51 ГБ

В этой теме нет новых непрочитанных сообщений. Лесник (4 сезон 1-24 серии из 60) Своя земля (Виктор Конисевич) [2017, детектив, криминал, HDTVRip-AVC]

5 | 7

17.77 ГБ

В этой теме нет новых непрочитанных сообщений. Лесник (4 сезон 1-40 серии из 60) Своя земля (Виктор Конисевич) [2017, детектив, криминал, HDTVRip-AVC]

4 | 20

30.25 ГБ

В этой теме нет новых непрочитанных сообщений. Лесник (4 сезон 1-60 серии из 60) Своя земля (Виктор Конисевич) [2017, детектив, криминал, HDTVRip]

28 | 18

36.66 ГБ

В этой теме нет новых непрочитанных сообщений. Лесник (4 сезон 1-58 серии из 60) Своя земля (Виктор Конисевич) [2017, детектив, криминал, HDTVRip-AVC]

1 | 6

44.35 ГБ




Вы не можете начинать темы
Вы не можете отвечать на сообщения
Вы не можете редактировать свои сообщения
Вы не можете удалять свои сообщения
Вы не можете добавлять вложения

Перейти:  
 Вход
ppkBB3cker v.2 © 2008-2014 @ PPK
[ Time : 0.034s | 15 Queries | GZIP : Off ]

cron