img image001 image001 image001 image001 image001 image001 image001 image001 image001 image001 image001 image001 image001 image001 image001 image001

Planets Sun Sun Sun
Статистика раздачи
Автор: Снежана | Размер: 7.13 ГБ | Добавлен: 19 июл 2018
Раздают: 1    Качают: 4
Скачать торрент
Скачать торрент
Описание торрента

СообщениеДобавлено: 19 июл 2018 

Старушки в бегах (1-6 серии из 8)

Перевод: Не требуется, cубтитры: отсутствуют
Формат: WEB-DL 720p, MKV, H.264, AC3
Страна: Россия
Режиссер: Алексей Колмогоров
Жанр: комедия, мелодрама
Всего серий: 8
Продолжительность: 6 x ~ 00:50:00
Год выпуска: 2018

В ролях: Елена Сафонова, Татьяна Орлова, Марина Яковлева, Галина Беляева, Сергей Баталов, Дмитрий Богданов, Алёна Коломина, Евгения Серебренникова, Сергей Загребнев, Вячеслав Манучаров, Александра Булычёва, Вера Воронкова, Анатолий Наумов (II), Алеса Качер, Наталья Унгард, Антон Батырев, Юлия Юрченко, Максим Литовченко, Константин Стрельников, Ксения Иванова, Александр Касаткин (II), Пётр Кудряшов, Дарья Лузина, Ирма Сафенкова, Александра Ровенских

Описание: Три подруги Зина, Лида и Катя живут вместе со своими взрослыми детьми. Вечный «квартирный вопрос» переплетается с такой же вечной темой «отцов и детей». И в один прекрасный день дамы решают уехать и освободить своих детей от накопившихся проблем…

Рейтинг и доп. информация:


Видео: 1280x720 (16:9), 25 fps, AVC MPEG-4 (x264), ~ 3200 kbps avg, 0.131 bit/pixel
Аудио: 48 kHz, AC3, 2/0 (L,R) ch, ~192.00 kbps avg
Внимание! Раздача ведётся путём добавления новых серий. При каждом добавлении создаётся новый торрент.
Чтобы начать докачку новой серии, пользователям необходимо сделать следующее:
1. Остановить скачивание.
2. Удалить старый торрент у себя из клиента (старые серии удалять не надо).
3. Скачать новый торрент и запустить его у себя в клиенте вместо старого, при этом указать клиенту путь в старую папку куда и должно происходить скачивание новых серий. Ваш клиент при этом должен произвести хеширование (проверку) старой папки и будет докачивать только те серии, которых у вас ещё нет. Старые серии при этом не удаляются, а продолжают раздаваться! Eсли вы уже удалили старые серии, то предотвратить повторную закачку старых серий можно, отжав галочку в соответствующих местах при запуске нового торрента.


Общее
Уникальный идентификатор : 218169868690367134606860311606670465273 (0xA421FD01B6678007B5648C00053518F9)
Полное имя : C:\Starushki v begah.WEB-DL (720p)..Files-x.mkv\01.Starushki v begah.WEB-DL (720p)..Files-x .mkv
Формат : Matroska
Версия формата : Version 2
Размер файла : 1,19 Гбайт
Продолжительность : 51 м. 58 с.
Режим общего битрейта : Постоянный
Общий поток : 3275 Кбит/сек
Дата кодирования : UTC 2018-07-16 20:00:38
Программа кодирования : mkvmerge v7.8.0 ('River Man') 32bit built on Apr 3 2015 12:11:22
Библиотека кодирования : libebml v1.3.1 + libmatroska v1.4.2

Видео
Идентификатор : 1
Формат : AVC
Формат/Информация : Advanced Video Codec
Профиль формата :
Настройки формата : CABAC / 4 Ref Frames
Параметр CABAC формата : Да
Параметр RefFrames формата : 4 кадра
Идентификатор кодека : V_MPEG4/ISO/AVC
Продолжительность : 51 м. 58 с.
Вид битрейта : Постоянный
Битрейт : 3018 Кбит/сек
Номинальный битрейт : 3200 Кбит/сек / 3200 Кбит/сек
Ширина : 1280 пикселей
Высота : 720 пикселей
Соотношение сторон : 16:9
Режим частоты кадров : Постоянный
Частота кадров : 25,000 кадров/сек
Цветовое пространство : YUV
Субдискретизация насыщенности : 4:2:0
Битовая глубина : 8 бит
Тип развёртки : Прогрессивная
Бит/(Пиксели*Кадры) : 0.131
Размер потока : 1,10 Гбайт (92%)
Библиотека кодирования : x264 core 148
Настройки программы : cabac=1 / ref=2 / deblock=1:0:0 / analyse=0x3:0x113 / me=hex / subme=6 / psy=1 / psy_rd=1.00:0.00 / mixed_ref=1 / me_range=16 / chroma_me=1 / trellis=1 / 8x8dct=1 / cqm=0 / deadzone=21,11 / fast_pskip=1 / chroma_qp_offset=-2 / threads=1 / lookahead_threads=1 / sliced_threads=0 / nr=0 / decimate=1 / interlaced=0 / bluray_compat=0 / constrained_intra=0 / bframes=3 / b_pyramid=2 / b_adapt=1 / b_bias=0 / direct=1 / weightb=1 / open_gop=0 / weightp=1 / keyint=250 / keyint_min=25 / scenecut=0 / intra_refresh=0 / rc_lookahead=30 / rc=cbr / mbtree=1 / bitrate=3200 / ratetol=1.0 / qcomp=0.60 / qpmin=0 / qpmax=69 / qpstep=4 / vbv_maxrate=3200 / vbv_bufsize=1600 / nal_hrd=cbr / filler=1 / ip_ratio=1.40 / aq=1:1.00
Default : Да
Forced : Нет

Аудио
Идентификатор : 2
Формат : AC-3
Формат/Информация : Audio Coding 3
Идентификатор кодека : A_AC3
Продолжительность : 51 м. 58 с.
Вид битрейта : Постоянный
Битрейт : 192 Кбит/сек
Каналы : 2 канала
Расположение каналов : Front: L R
Частота : 48,0 КГц
Частота кадров : 31,250 кадров/сек (1536 SPF)
Битовая глубина : 16 бит
Метод сжатия : С потерями
Задержка видео : -61 мс.
Размер потока : 71,4 Мбайт (6%)
ServiceKind/String : Complete Main
Default : Да
Forced : Нет








   Похожие торренты   Торрент   Размер 
В этой теме нет новых непрочитанных сообщений. Старушки в бегах (1-4 серии из 8) (Алексей Колмогоров) [2018, комедия, мелодрама, WEB-DL 720p]

0 | 0

4.76 ГБ

В этой теме нет новых непрочитанных сообщений. Старушки в бегах (1-8 серии из 8) (Алексей Колмогоров) [2018, комедия, мелодрама, WEB-DL 720p]

8 | 0

9.49 ГБ

В этой теме нет новых непрочитанных сообщений. Старушки в бегах (1-2 серии из 8) (Алексей Колмогоров) [2018, комедия, мелодрама, WEB-DL 720p]

19 | 6

2.38 ГБ

В этой теме нет новых непрочитанных сообщений. Старушки в бегах (1-2 серии из 8) (Алексей Колмогоров) [2018, комедия, мелодрама, WEB-DL 720p]

0 | 0

2.38 ГБ

В этой теме нет новых непрочитанных сообщений. Старушки в бегах (1-8 серии из 8) (Алексей Колмогоров) [2018, комедия, мелодрама, WEB-DL 720p]

24 | 6

9.5 ГБ

В этой теме нет новых непрочитанных сообщений. Старушки в бегах (1-8 серии из 8) (Алексей Колмогоров) [2018, комедия, мелодрама, HDTVRip 720p]

38 | 5

10.61 ГБ

В этой теме нет новых непрочитанных сообщений. Старушки в бегах (1-2 серии из 8) (Алексей Колмогоров) [2018, комедия, мелодрама, HDTVRip 720p]

3 | 0

2.65 ГБ




Вы не можете начинать темы
Вы не можете отвечать на сообщения
Вы не можете редактировать свои сообщения
Вы не можете удалять свои сообщения
Вы не можете добавлять вложения

Перейти:  
 Вход
ppkBB3cker v.2 © 2008-2014 @ PPK
[ Time : 0.263s | 16 Queries | GZIP : Off ]

cron