img image001 image001 image001 image001 image001 image001 image001 image001 image001 image001 image001 image001 image001 image001 image001 image001

Planets Sun Sun Sun
Статистика раздачи
Автор: Снежана | Размер: 4.84 ГБ | Добавлен: 05 июл 2018
Раздают: 30    Качают: 2
Скачать торрент
Скачать торрент
Описание торрента

СообщениеДобавлено: 05 июл 2018 

Плакучая ива (1-12 серии из 12)

Перевод: Не требуется, cубтитры: отсутствуют
Формат: WEB-DLRip-AVC, MKV, H.264, AC3
Страна: Россия
Режиссер: Феликс Герчиков
Жанр: мелодрама
Всего серий: 12
Продолжительность: 12 x ~ 00:33:00
Год выпуска: 2015

В ролях: Анна Снаткина, Ольга Сумская, Анна Лутцева, Михаил Гаврилов (II), Игнатий Акрачков, Александр Андриенко, Игорь Денисов, Борис Хвошнянский, Кирилл Полухин, Евгений Воскресенский, Дмитрий Фрид, Анна Носатова, Виталий Бредихин, Андрей Лукьянов, Светлана Кожемякина, Геннадий Фомин, Игорь Сигов, Иван Мацкевич, Александр Жданович, Олег Гарбуз, Александр Кашперов (II), Артемий Шаффер, Маргарита Удовенко, Полина Стефанович, Татьяна Мархель, Вячеслав Павлють, Сергей Пукита, Дмитрий Пустильник, Олеся Грибок, Зинаида Зубкова, Евгений Никитин, Василиса Агейкина, Сергей Новицкий, Алина Трепенок, Светлана Никифорова, Сергей Журавель

Описание: Эта увлекательная история о женской судьбе, о любви и ненависти, в которой «сильные чувства, проклятия и роковые события» уходят корнями в переломную для России эпоху начала XX века. Предки и их потомки, удивительная реинкарнация душ и страстей, тайные законы бытия – удивительно преломляются в живой истории о любви и прощении.

Рейтинг и доп. информация:


Видео: 1024x576 (16:9), 25 fps, AVC MPEG-4 (x264), ~ 1600 kbps , 0.109 bit/pixel
Аудио: 44 kHz, АС3, 2/0 (L,R), ~192.00 kbps avg
Общее
Уникальный идентификатор : 193045700162152416528837496143595062072 (0x913B3FDC7689598F8547E25C95FE4338)
Полное имя : C:\Плакучая ива.(2015).WEB-DLRip.(AVC).Files-x\01.Плакучая ива.(2015).WEB-DLRip.(AVC).by.Серый1779.Files-x.mkv
Формат : Matroska
Версия формата : Version 2
Размер файла : 429 Мбайт
Продолжительность : 33 м. 27 с.
Общий поток : 1793 Кбит/сек
Дата кодирования : UTC 2018-06-20 20:42:39
Программа кодирования : mkvmerge v7.8.0 ('River Man') 32bit built on Apr 3 2015 12:11:22
Библиотека кодирования : libebml v1.3.1 + libmatroska v1.4.2

Видео
Идентификатор : 1
Формат : AVC
Формат/Информация : Advanced Video Codec
Профиль формата :
Настройки формата : CABAC / 9 Ref Frames
Параметр CABAC формата : Да
Параметр RefFrames формата : 9 кадров
Идентификатор кодека : V_MPEG4/ISO/AVC
Продолжительность : 33 м. 27 с.
Битрейт : 1600 Кбит/сек
Ширина : 1024 пикселя
Высота : 576 пикселей
Соотношение сторон : 16:9
Режим частоты кадров : Постоянный
Частота кадров : 25,000 кадров/сек
Цветовое пространство : YUV
Субдискретизация насыщенности : 4:2:0
Битовая глубина : 8 бит
Тип развёртки : Прогрессивная
Бит/(Пиксели*Кадры) : 0.109
Размер потока : 375 Мбайт (87%)
Библиотека кодирования : x264 core 146 r2538 121396c
Настройки программы : cabac=1 / ref=9 / deblock=1:-2:-1 / analyse=0x3:0x133 / me=umh / subme=9 / psy=1 / psy_rd=1.00:0.15 / mixed_ref=1 / me_range=32 / chroma_me=1 / trellis=2 / 8x8dct=1 / cqm=0 / deadzone=21,11 / fast_pskip=0 / chroma_qp_offset=-3 / threads=18 / lookahead_threads=3 / sliced_threads=0 / nr=0 / decimate=1 / interlaced=0 / bluray_compat=0 / constrained_intra=0 / bframes=9 / b_pyramid=2 / b_adapt=2 / b_bias=0 / direct=1 / weightb=1 / open_gop=0 / weightp=2 / keyint=250 / keyint_min=25 / scenecut=40 / intra_refresh=0 / rc=2pass / mbtree=0 / bitrate=1600 / ratetol=1.0 / qcomp=0.60 / qpmin=0 / qpmax=69 / qpstep=4 / cplxblur=20.0 / qblur=0.5 / ip_ratio=1.40 / pb_ratio=1.30 / aq=2:1.00
Default : Да
Forced : Нет
Цветовой диапазон : Limited
Основные цвета : BT.709
Характеристики трансфера : BT.709
Коэффициенты матрицы : BT.709

Аудио
Идентификатор : 2
Формат : AC-3
Формат/Информация : Audio Coding 3
Идентификатор кодека : A_AC3
Продолжительность : 33 м. 27 с.
Вид битрейта : Постоянный
Битрейт : 192 Кбит/сек
Каналы : 2 канала
Расположение каналов : Front: L R
Частота : 44,1 КГц
Частота кадров : 28,711 кадров/сек (1536 SPF)
Битовая глубина : 16 бит
Метод сжатия : С потерями
Размер потока : 45,9 Мбайт (11%)
ServiceKind/String : Complete Main
Default : Да
Forced : Нет








   Похожие торренты   Торрент   Размер 
В этой теме нет новых непрочитанных сообщений. Плакучая ива (1-12 серии из 12) (Феликс Герчиков) [2015, мелодрама, WEB-DLRip]

35 | 5

4.72 ГБ

В этой теме нет новых непрочитанных сообщений. Плакучая ива (1-4 серии из 12) (Феликс Герчиков) [2018, мелодрама, WEB-DLRip-AVC]

8 | 0

1.43 ГБ

В этой теме нет новых непрочитанных сообщений. Плакучая ива (1-4 серии из 12) (Феликс Герчиков) [2018, мелодрама, WEB-DLRip]

3 | 0

1.38 ГБ

В этой теме нет новых непрочитанных сообщений. Плакучая ива (1-4 серии из 12) (Феликс Герчиков) [2015, мелодрама, HDTV 1080p]

17 | 4

5.82 ГБ

В этой теме нет новых непрочитанных сообщений. Плакучая ива (1-4 серии из 12) (Феликс Герчиков) [2015, мелодрама, HDTVRip 720p]

4 | 0

3.37 ГБ

В этой теме нет новых непрочитанных сообщений. Плакучая ива (1-12 серии из 12) (Феликс Герчиков) [2015, мелодрама, HDTV 1080p]

15 | 1

19.61 ГБ

В этой теме нет новых непрочитанных сообщений. Разведчицы (1-12 серии из 12) (Феликс Герчиков) [2013, военный, драма, WEB-DLRip-AVC]

5 | 5

8.06 ГБ




Вы не можете начинать темы
Вы не можете отвечать на сообщения
Вы не можете редактировать свои сообщения
Вы не можете удалять свои сообщения
Вы не можете добавлять вложения

Перейти:  
 Вход
ppkBB3cker v.2 © 2008-2014 @ PPK
[ Time : 0.032s | 17 Queries | GZIP : Off ]

cron