img image001 image001 image001 image001 image001 image001 image001 image001 image001 image001 image001 image001 image001 image001 image001 image001

Planets Sun Sun Sun
Статистика раздачи
Автор: PriZraK | Размер: 9.77 ГБ | Добавлен: 20 июн 2018
Раздают: 29    Качают: 2
Скачать торрент
Скачать торрент
Описание торрента

СообщениеДобавлено: 20 июн 2018 

Нacлeдницa поневоле / Спадкоємиця мимоволі (1-8 серии из 8)

Перевод: Не требуется, cубтитры: отсутствуют
Формат: HDTVRip 720p, MKV, H.264, AC3
Страна: Украина
Режиссер: Тарас Дударь
Жанр: мелодрама, приключения
Всего серий: 8
Продолжительность: 8 х 00:42:00
Год выпуска: 2018

В ролях: Анастасия Иванова (II), Влад Никитюк, Александр Крыжановский, Ксения Мишина, Георгий Хостикоев, Сергей Сипливый, Екатерина Вайвала, Сергей Чекерес, Светлана Штанько, Игорь Тихомиров, Михаил Досенко, Александр Кобзарь, Алина Коваленко, Алексей Агеев (II), Евгений Давиденко (II), Константин Косинский, Александр Пискунов, Макар Тихомиров, Максим Боряк, Алиса Сиволап, Владлен Пупков, Анастасия Лютова, Евгений Синчуков, Александр Шевчук, Екатерина Варченко, Глеб Михайличенко, Константин Октябрьский, Ольга Ларина, Сергей Солодов, Станислав Москвин, Тарас Цимбалюк, Сергей Петько, Юлия Мотрук, Татьяна Круликовская, Анатолий Сомик, Дмитрий Чернов (II), Дарья Трегубова, Виктор Жданов (III)

Описание: Жизнь Софии проходит между лекциями, подработкой в этнографическом парке аниматором, помощью приемной маме в загородном мотеле. Все, о чем мечтает девушка, это накопить денег и улететь в Турцию на раскопки с молодым профессором, в которого она тайно влюблена. София уверена, что именно там Игорь Святославович, наконец, перестанет относиться к ней, как к простой студентке и это, конечно же, положит начало их долгой и счастливой семейной жизни. Но вдруг Cофия узнает, что ее настоящая фамилия – Изьяславская, и она – наследница древнего рода, своими корнями уходящего до самих Рюриков. Сбудутся ли после этого желания девушки?

Рейтинг и доп. информация:


Видео: 1280х720 (16:9), 25 fps, AVC MPEG-4 (x264), ~ 4000 kbps , 0.174 bit/pixel
Аудио: 48 kHz, АС3, 2/0 (L,R), ~192.00 kbps avg
Общее
Уникальный идентификатор : 191529090311035525028442254146159759986 (0x90172938F15685FF9EF6CDACBA5BD272)
Полное имя : C:\Naslednica.ponevole.2018.HDTVRip.(720p).Nikolspup\Naslednica.ponevole.(01.seriya.iz.0.2018.HDTVRip.(720p).Nikolspup.mkv
Формат : Matroska
Версия формата : Version 4 / Version 2
Размер файла : 1,27 Гбайт
Продолжительность : 42 м. 35 с.
Общий поток : 4272 Кбит/сек
Дата кодирования : UTC 2018-06-16 10:19:33
Программа кодирования : mkvmerge v7.8.0 ('River Man') 32bit built on Mar 27 2015 16:18:02
Библиотека кодирования : libebml v1.3.1 + libmatroska v1.4.2

Видео
Идентификатор : 1
Формат : AVC
Формат/Информация : Advanced Video Codec
Профиль формата :
Настройки формата : CABAC / 9 Ref Frames
Параметр CABAC формата : Да
Параметр RefFrames формата : 9 кадров
Идентификатор кодека : V_MPEG4/ISO/AVC
Продолжительность : 42 м. 35 с.
Битрейт : 4000 Кбит/сек
Ширина : 1280 пикселей
Высота : 720 пикселей
Соотношение сторон : 16:9
Режим частоты кадров : Постоянный
Частота кадров : 25,000 кадров/сек
Цветовое пространство : YUV
Субдискретизация насыщенности : 4:2:0
Битовая глубина : 8 бит
Тип развёртки : Прогрессивная
Бит/(Пиксели*Кадры) : 0.174
Размер потока : 1,19 Гбайт (94%)
Default : Нет
Forced : Нет
Цветовой диапазон : Limited
Основные цвета : BT.709
Характеристики трансфера : BT.709
Коэффициенты матрицы : BT.709

Аудио
Идентификатор : 2
Формат : AC-3
Формат/Информация : Audio Coding 3
Идентификатор кодека : A_AC3
Продолжительность : 42 м. 35 с.
Вид битрейта : Постоянный
Битрейт : 192 Кбит/сек
Каналы : 2 канала
Расположение каналов : Front: L R
Частота : 48,0 КГц
Частота кадров : 31,250 кадров/сек (1536 SPF)
Битовая глубина : 16 бит
Метод сжатия : С потерями
Размер потока : 58,5 Мбайт (4%)
Язык : Russian
ServiceKind/String : Complete Main
Default : Да
Forced : Да








   Похожие торренты   Торрент   Размер 
В этой теме нет новых непрочитанных сообщений. Наследница поневоле (1-2 серии из 8) (Тарас Дударь) [2018, мелодрама, приключения, WEBRip 720p]

2 | 0

1.93 ГБ

В этой теме нет новых непрочитанных сообщений. Наследница поневоле (1-8 серии из 8) (Тарас Дударь) [2018, мелодрама, приключения, WEBRip 720p]

40 | 6

7.68 ГБ

В этой теме нет новых непрочитанных сообщений. Наследница поневоле (1-8 серии из 8) (Тарас Дударь) [2018, мелодрама, приключения, WEBRip]

44 | 4

4.3 ГБ

В этой теме нет новых непрочитанных сообщений. Наследница поневоле (1-4 серии из 8) (Тарас Дударь) [2018, мелодрама, приключения, WEBRip ]

7 | 0

2.15 ГБ

В этой теме нет новых непрочитанных сообщений. Наследница поневоле (1-6 серии из 8) (Тарас Дударь) [2018, мелодрама, приключения, WEBRip-AVC]

2 | 0

3.22 ГБ

В этой теме нет новых непрочитанных сообщений. Наследница поневоле (1-8 серии из 8) (Тарас Дударь) [2018, мелодрама, приключения, WEBRip-AVC]

21 | 2

4.32 ГБ

В этой теме нет новых непрочитанных сообщений. Золотая орда (1-12 серии из 16) (Тимур Алпатов) [2018, мелодрама, драма, приключения, история, HDTVRip 720p]

4 | 4

15.56 ГБ




Вы не можете начинать темы
Вы не можете отвечать на сообщения
Вы не можете редактировать свои сообщения
Вы не можете удалять свои сообщения
Вы не можете добавлять вложения

Перейти:  
 Вход
ppkBB3cker v.2 © 2008-2014 @ PPK
[ Time : 2.026s | 16 Queries | GZIP : Off ]

cron